вход на сайт

Имя пользователя :
Пароль :

Восстановление пароля Регистрация
Главное - не бояться! / A Little Bit of Heaven (Николь Кэссел / Nicole Kassel, драма, мелодрама, комедия, 2011) [BDRip-AVC, Профессиональный (дублированный) + Оригинал]
Рейтинг:
(голосов: 1)



[img]{THEME}/images/logopost.png[/img]



Главное - не бояться! | A Little Bit of Heaven
«Держись за любовь»

Год выпуска: 2011
Страна: США
Производство: Davis Entertainment, Film Department
Жанр: драма, мелодрама, комедия

Режиссёр: Николь Кэссел / Nicole Kassel
В ролях: Кейт Хадсон, Гаэль Гарсия Берналь, Питер Динклэйдж, Люси Панч, Кэти Бейтс, Бо Брассо, Вупи Голдберг, Розмари ДеУитт, Трит Уильямс, Алан Дэйл...

Перевод: Профессиональный (дублированный) [лицензия] + Оригинал
Субтитры: Отсутствуют

Описание: Трагикомедия, рассказывающая о любовных отношениях между смертельно больной раком 30-летней красавицей и лечащим ее доктором-онкологом.Дата премьеры (мир): 4 февраля 2011
Дата премьеры (РФ): 6 октября 2011, «Top Film Distribution»
Качество: BDRip-AVC
Продолжительность: 01:46:35

Формат: MKV
Видео кодек: H264
Аудио кодек: AC3 Dolby Digital
Видео: 1024x432 (2.35:1), 24 fps, H264 ~2095 kbps avg, 0.197 bit/pixel
Аудио1: 48 kHz, AC3 Dolby Digital, 3/2 (L,C,R,l,r) + LFE ch, 384 kbps avg | Профессиональный (дублированный) [лицензия]
Аудио2: 48 kHz, AC3 Dolby Digital, 3/2 (L,C,R,l,r) + LFE ch, 384 kbps avg | Оригинал

MediaInfo ▼TextОбщее
Полное имя : Glavnoe.ne.boyatsya.2011.BDRip-AVC.mkv
Формат : Matroska
Версия формата : Version 2
Размер файла : 2,17 Гбайт
Продолжительность : 1 ч. 46 м.
Общий поток : 2924 Кбит/сек
Название фильма : Glavnoe.ne.boyatsya.2011.BDRip-AVC
Дата кодирования : UTC 2011-11-12 09:01:34
Программа кодирования : mkvmerge v5.0.1 (Es ist Sommer) built on Oct 9 2011 11:55:43
Библиотека кодирования : libebml v1.2.2 + libmatroska v1.3.0
Видео
Идентификатор : 1
Формат : AVC
Формат/Информация : Advanced Video Codec
Профиль формата : [email protected]
Параметр CABAC формата : Да
Параметр ReFrames формата : 11 кадров
Идентификатор кодека : V_MPEG4/ISO/AVC
Продолжительность : 1 ч. 46 м.
Битрейт : 2095 Кбит/сек
Ширина : 1024 пикселя
Высота : 432 пикселя
Соотношение сторон : 2,35:1
Частота кадров : 24,000 кадра/сек
Цветовое пространство : YUV
Субдискретизация насыщенности : 4:2:0
Битовая глубина : 8 бит
Тип развёртки : Прогрессивная
Бит/(Пиксели*Кадры) : 0.197
Размер потока : 1,51 Гбайт (70%)
Заголовок : Источник Blu-ray
Библиотека кодирования : x264 core 114 r1913 5fd3dce
Настройки программы : cabac=1 / ref=11 / deblock=1:-2:-1 / analyse=0x3:0x113 / me=umh / subme=9 / psy=1 / psy_rd=1.00:0.10 / mixed_ref=1 / me_range=32 / chroma_me=1 / trellis=2 / 8x8dct=1 / cqm=0 / deadzone=21,11 / fast_pskip=1 / chroma_qp_offset=-3 / threads=9 / sliced_threads=0 / nr=0 / decimate=1 / interlaced=0 / constrained_intra=0 / bframes=10 / b_pyramid=2 / b_adapt=2 / b_bias=0 / direct=3 / weightb=1 / open_gop=0 / weightp=0 / keyint=250 / keyint_min=23 / scenecut=40 / intra_refresh=0 / rc_lookahead=80 / rc=2pass / mbtree=1 / bitrate=2095 / ratetol=1.0 / qcomp=0.60 / qpmin=0 / qpmax=69 / qpstep=4 / cplxblur=20.0 / qblur=0.5 / ip_ratio=1.40 / aq=2:0.90
Язык : English
Аудио #1
Идентификатор : 2
Формат : AC-3
Формат/Информация : Audio Coding 3
Расширение режима : CM (complete main)
Идентификатор кодека : A_AC3
Продолжительность : 1 ч. 46 м.
Вид битрейта : Постоянный
Битрейт : 384 Кбит/сек
Каналы : 6 каналов
Расположение каналов : Front: L C R, Side: L R, LFE
Частота : 48,0 КГц
Битовая глубина : 16 бит
Метод сжатия : С потерями
Размер потока : 292 Мбайт (13%)
Заголовок : Источник DVD
Язык : Russian
Аудио #2
Идентификатор : 3
Формат : AC-3
Формат/Информация : Audio Coding 3
Расширение режима : CM (complete main)
Идентификатор кодека : A_AC3
Продолжительность : 1 ч. 46 м.
Вид битрейта : Постоянный
Битрейт : 448 Кбит/сек
Каналы : 6 каналов
Расположение каналов : Front: L C R, Side: L R, LFE
Частота : 48,0 КГц
Битовая глубина : 16 бит
Метод сжатия : С потерями
Размер потока : 341 Мбайт (15%)
Заголовок : Источник DVD
Язык : English
Меню
00:00:00.000 : ru:00:00:00.000000000
00:05:00.000 : :00:05:00.000000000
00:10:00.000 : :00:10:00.000000000
00:15:00.000 : :00:15:00.000000000
00:20:00.000 : :00:20:00.000000000
00:25:00.000 : :00:25:00.000000000
00:30:00.000 : :00
3880d4d1340fca35a5b7c391d8c107e7870f5553Главное - не бояться! / A Little Bit of Heaven (Николь Кэссел / Nicole Kassel, драма, мелодрама, комедия, 2011) [BDRip-AVC, Профессиональный (дублированный) + Оригинал] Главное - не бояться! / A Little Bit of Heaven (Николь Кэссел / Nicole Kassel, драма, мелодрама, комедия, 2011) [BDRip-AVC, Профессиональный (дублированный) + Оригинал] " />

Аплоадер: Админ, дата: 6-12-2011, 00:00, торрент скачан: 359 раз

Понравилась раздача? Посмотрите эти:
  • Перелом / Fracture (Грегори Хоблит, Триллер, драма, криминал, детектив, 200 ...
  • Суррогат / The Sessions (Бен Луин, Драма, 2012) [BDRip-AVC, Профессиональны ...
  • Страшно красив / Beastly (Даниел Барнз, фэнтези, драма, мелодрама, 2011) [H ...
  • Совсем не бабник / Cedar Rapids (Мигель Артета, комедия, 2011) [BDRip-AVC, ...
  • Эта - дурацкая - любовь / Crazy, Stupid, Love. (Гленн Фикарра,Джон Рекуа,др ...
  • Начинающие / Beginners (Майк Миллс / Mike Mills, драма, мелодрама, комедия, ...
  • Соломенные псы / Straw Dogs (Род Лури, Триллер, драма, криминал , 2011) [BD ...
  • Заражение / Contagion (Стивен Содерберг, триллер, драма, 2011) [BDRip-AVC, ...
  • Главное - не бояться! / A Little Bit of Heaven (Николь Кэссел, драма, мелод ...
  • Погоня / Abduction (Джон Синглтон, боевик, триллер, драма, детектив, 2011) ...
  • Главное - не бояться! / A Little Bit of Heaven (Николь Кэссел, драма, мелод ...
  • Иностранный легион / La cité (Ким Нгуйен / Kim Nguyen, драма, 2010) [DVDRip ...
  • Драйв / Drive (Николас Виндинг Рёфн, боевик, триллер, драма, криминал, 2011 ...
  • Спиди Гонщик / Speed Racer (Энди Вачовски / Andy Wachowski, Лана Вачовски / ...
  • Переростки / The Inbetweeners (Бен Палмер, Комедия, 2011) [BDRip-AVC, Профе ...
  • Бедная богатая девочка / Young Adult (Джейсон Райтман, драма, комедия, 2011 ...
  • Проект X: Дорвались / Project X (Нима Нуризаде, комедия, 2012) [BDRip - AVC ...
  • Эд Вуд / Ed Wood (Тим Бёртон, драма, комедия, биография, 1994) [BDRip-AVC, ...
  • Четыре Рождества / Four Christmases (Сет Гордон, Драма, мелодрама, комедия, ...
  • Главное - не бояться! / A Little Bit of Heaven (Николь Кэссел, Драма, 2011) ...
  • Заражение / Contagion (Стивен Содерберг, Фантастика, 2011) [BDRip 1080p, Пр ...
  • Бедная богатая девочка / Young Adult (Джейсон Райтман, драма, комедия, 2011 ...
  • Главное - не бояться! / A Little Bit of Heaven (Николь Кэссел, Драма, Комед ...
  • Главное - не бояться! / A Little Bit of Heaven (Николь Кэссел, Драма, Комед ...
  • Главное - не бояться! / A Little Bit of Heaven (Николь Кэссел,Драма, мелодр ...
  • Информация
    Посетители, находящиеся в группе Гости, не могут оставлять комментарии к данной публикации.