вход на сайт

Имя пользователя :
Пароль :

Восстановление пароля Регистрация
Эта - дурацкая - любовь / Crazy, Stupid, Love. (Гленн Фикарра,Джон Рекуа,драма, мелодрама, комедия,2011) [BDRip-AVC,Дублированный + Sub(RUS)]
Рейтинг:
(голосов: 1)



[img]{THEME}/images/logopost.png[/img]




Эта - дурацкая - любовь / Crazy, Stupid, Love.
Cлоган: «This Is Crazy»

Год выпуска: 2011
Страна: США
Производство: Carousel Productions (II)
Жанр: драма, мелодрама, комедия

Режиссёр: Гленн Фикарра,Джон Рекуа
В ролях: Стив Карелл, Райан Гослинг, Джулианна Мур, Эмма Стоун, Аналей Типтон, Йон Бобо, Джои Кинг, Мариса Томей, Бет Литлфорд, Джон Кэрролл Линч

Перевод: Дублированный [лицензия]
Субтитры: Русские (SRT)

Описание: У Кола Уивера, пуританских взглядов семьянина в возрасте «чуть-чуть за сорок», не жизнь, а мечта — хорошая работа, прекрасный дом, замечательные дети и брак со школьной возлюбленной. Но когда Кол узнает, что его жена Эмили изменила ему и хочет развода, его «идеальная» жизнь быстро рушится. Хуже того, говоря современным языком, Кол, который уже пару десятилетий не ходил на свидания, являет собой настоящего «лоха».Качество: BDRip-AVC
Продолжительность: 01:58:06

Формат: MKV
Видео кодек: x264
Аудио кодек: AC3
Видео: 960x400 (2,40:1), 23,976 fps,~ 1370 kbps avg, 0.149 bit/pixel
Аудио: 48 kHz, AC3 Dolby Digital, 3/2 (L,C,R,l,r) + LFE ch, ~384 kbps

премьера (мир): 28 июля 2011
премьера (РФ): 22 сентября 2011, «Каро-Премьер»
релиз на DVD: 10 ноября 2011, «CP-Digital»
релиз на Blu-Ray: 10 ноября 2011, «CP-Digital»

MediaInfo ▼TextОбщее
Полное имя : Jeta.durackaja.ljubov.2011Jeta.durackaja.ljubov.2011.BDRip-AVC.mkv
Формат : Matroska
Версия формата : Version 2
Размер файла : 1,45 Гбайт
Продолжительность : 1 ч. 58 м.
Общий поток : 1756 Кбит/сек
Название фильма : Jeta.durackaja.ljubov.2011.BDRip-AVC
Дата кодирования : UTC 2011-11-30 10:40:46
Программа кодирования : mkvmerge v5.0.1 (Es ist Sommer) built on Oct 9 2011 11:55:43
Библиотека кодирования : libebml v1.2.2 + libmatroska v1.3.0

Видео
Идентификатор : 1
Формат : AVC
Формат/Информация : Advanced Video Codec
Профиль формата : [email protected]
Параметр CABAC формата : Да
Параметр ReFrames формата : 10 кадров
Идентификатор кодека : V_MPEG4/ISO/AVC
Продолжительность : 1 ч. 58 м.
Битрейт : 1370 Кбит/сек
Ширина : 960 пикселей
Высота : 400 пикселей
Соотношение сторон : 2,40:1
Частота кадров : 23,976 кадра/сек
Цветовое пространство : YUV
Субдискретизация насыщенности : 4:2:0
Битовая глубина : 8 бит
Тип развёртки : Прогрессивная
Бит/(Пиксели*Кадры) : 0.149
Размер потока : 1,10 Гбайт (76%)
Заголовок : Источник Blu-ray
Библиотека кодирования : x264 core 119 r2106 07efeb4
Настройки программы : cabac=1 / ref=10 / deblock=1:-3:-3 / analyse=0x3:0x113 / me=umh / subme=9 / psy=1 / psy_rd=1.00:0.10 / mixed_ref=1 / me_range=32 / chroma_me=1 / trellis=2 / 8x8dct=1 / cqm=0 / deadzone=21,11 / fast_pskip=1 / chroma_qp_offset=-3 / threads=9 / sliced_threads=0 / nr=0 / decimate=1 / interlaced=0 / bluray_compat=0 / constrained_intra=0 / bframes=10 / b_pyramid=2 / b_adapt=2 / b_bias=0 / direct=3 / weightb=1 / open_gop=0 / weightp=0 / keyint=250 / keyint_min=23 / scenecut=40 / intra_refresh=0 / rc_lookahead=60 / rc=2pass / mbtree=1 / bitrate=1370 / ratetol=1.0 / qcomp=0.60 / qpmin=0 / qpmax=69 / qpstep=4 / cplxblur=20.0 / qblur=0.5 / ip_ratio=1.40 / aq=2:0.90
Язык : English
Default : Да
Forced : Нет

Аудио
Идентификатор : 2
Формат : AC-3
Формат/Информация : Audio Coding 3
Расширение режима : CM (complete main)
Идентификатор кодека : A_AC3
Продолжительность : 1 ч. 58 м.
Вид битрейта : Постоянный
Битрейт : 384 Кбит/сек
Каналы : 6 каналов
Расположение каналов : Front: L C R, Side: L R, LFE
Частота : 48,0 КГц
Битовая глубина : 16 бит
Метод сжатия : С потерями
Размер потока : 324 Мбайт (22%)
Заголовок : Источник Blu-ray DUB
Язык : Russian
Default : Да
Forced : Нет

Текст #1
Идентификат
45d6c2e8fe6ffc80357d9d5542a11c762fbbea0dЭта - дурацкая - любовь / Crazy, Stupid, Love. (Гленн Фикарра,Джон Рекуа,драма, мелодрама, комедия,2011) [BDRip-AVC,Дублированный + Sub(RUS)] Эта - дурацкая - любовь / Crazy, Stupid, Love. (Гленн Фикарра,Джон Рекуа,драма, мелодрама, комедия,2011) [BDRip-AVC,Дублированный + Sub(RUS)] " />

Аплоадер: Админ, дата: 30-11-2011, 20:28, торрент скачан: 359 раз

Понравилась раздача? Посмотрите эти:
  • Больше, чем любовь / A Lot Like Love (Найджел Коул, Драма, мелодрама, комед ...
  • Запретная любовь / The Edge of Love (Джон Мэйбери, Драма, мелодрама, военны ...
  • Эта - дурацкая - любовь / Crazy, Stupid, Love. (Гленн Фикарра,Джон Рекуа,др ...
  • Начинающие / Beginners (Майк Миллс / Mike Mills, драма, мелодрама, комедия, ...
  • Эта - дурацкая - любовь / Crazy, Stupid, Love. (Гленн Фикарра,Джон Рекуа,др ...
  • Главное - не бояться! / A Little Bit of Heaven (Николь Кэссел / Nicole Kass ...
  • Соломенные псы / Straw Dogs (Род Лури, Триллер, драма, криминал , 2011) [BD ...
  • Заражение / Contagion (Стивен Содерберг, триллер, драма, 2011) [BDRip-AVC, ...
  • Погоня / Abduction (Джон Синглтон, боевик, триллер, драма, детектив, 2011) ...
  • Драйв / Drive (Николас Виндинг Рёфн, боевик, триллер, драма, криминал, 2011 ...
  • Резня /Carnage (Роман Полански, драма, комедия, 2011) [DVDRip-AVC, Дублиров ...
  • Переростки / The Inbetweeners (Бен Палмер, Комедия, 2011) [BDRip-AVC, Профе ...
  • Эта - дурацкая - любовь / Crazy, Stupid, Love. (Гленн Фикарра / Glenn Ficar ...
  • Бедная богатая девочка / Young Adult (Джейсон Райтман, драма, комедия, 2011 ...
  • Любовь / Love (Уильям Юбэнк, Фантастика, драма, 2011) [BDRip-AVC, Профессио ...
  • Эта – дурацкая – любовь / Crazy, Stupid, Love (Гленн Фикарра, Джон Рекуа, м ...
  • Эта - дурацкая - любовь / Crazy, Stupid, Love (Гленн Фикарра, Джон Рекуа, д ...
  • Заражение / Contagion (Стивен Содерберг, Фантастика, 2011) [BDRip 1080p, Пр ...
  • Эта - дурацкая - любовь / Crazy, Stupid, Love. (Гленн Фикарра,Джон Рекуа,др ...
  • Эта - дурацкая - любовь / Crazy, Stupid, Love. (Гленн Фикарра,Джон Рекуа,др ...
  • Эта - дурацкая - любовь / Crazy, Stupid, Love. (Гленн Фикарра / Glenn Ficar ...
  • Эта - дурацкая - любовь / Crazy, Stupid, Love. (Гленн Фикарра / Glenn Ficar ...
  • Эта - дурацкая - любовь / Crazy, Stupid, Love. (Гленн Фикарра, Джон Рекуа, ...
  • [iPhone, iPod, iPad] Эта дурацкая любовь / Crazy, Stupid, Love (Гленн Фикар ...
  • Эта - дурацкая - любовь / Crazy, Stupid, Love. (Гленн Фикарра / Glenn Ficar ...
  • Информация
    Посетители, находящиеся в группе Гости, не могут оставлять комментарии к данной публикации.