вход на сайт

Имя пользователя :
Пароль :

Восстановление пароля Регистрация
Тюремщик / Screwed (Рег Тревисс / Reg Traviss, Драма, 2011) [DVDRip , Любительский (двуголосый, закаровый)]
Рейтинг:
(голосов: 1)



[img]{THEME}/images/logopost.png[/img]



Тюремщик / Screwed

Год выпуска: 2011
Страна: Великобритания
Производство: Surya Productions
Жанр: Драма


Режиссёр:Рег Тревисс / Reg Traviss
В ролях:Джеймс Д’Арси, Ноэль Кларк, Фрэнк Харпер, Кейт Магован, Джэми Формен, Даг Аллен, Рэй Пантаки, Эндрю Шим, Дэвид Хеймен, Кэл Макэнинк..


Перевод: Любительский (двуголосый, закаровый)
Субтитры: нет


О фильме:Данный кинофильм, это - полубиографическая история, основанная на жутких событиях, которые происходили в самой жестокой тюрьме Великобритании
Качество: DVDRip
Продолжительность: 01:45:39 часа


Формат: AVI
Видео кодек: XviD build 50
Аудио кодек: AC3 Dolby Digital
Видео: 720x304(2.37:1), 23.976 fps, XviD build 50 ~1409 kbps avg, 0.27 bit/pixel
Аудио: 48 kHz, AC3 Dolby Digital, 3/2 (L,C,R,l,r) + LFE ch, ~448 kbps


Дата премьеры (мир):3 июня 2011


"MediaInfo" ▼
Format : AVI
Format/Info : Audio Video Interleave
File size : 1.38 GiB
Duration : 1h 45mn
Overall bit rate : 1 867 Kbps
Writing application : VirtualDubMod 1.5.10.3 (build 2550/release)
Writing library : VirtualDubMod build 2550/release
Video #0
ID : 0
Format : MPEG-4 Visual
Format profile : Advanced [email protected]
Format settings, BVOP : 2
Format settings, QPel : No
Format settings, GMC : No warppoints
Format settings, Matrix : Default (MPEG)
Codec ID : XVID
Codec ID/Hint : XviD
Duration : 1h 45mn
Bit rate : 1 409 Kbps
Width : 720 pixels
Height : 304 pixels
Display aspect ratio : 2.35:1
Frame rate : 23.976 fps
Color space : YUV
Chroma subsampling : 4:2:0
Bit depth : 8 bits
Scan type : Progressive
Compression mode : Lossy
Bits/(Pixel*Frame) : 0.269
Stream size : 1.04 GiB (76%)
Writing library : XviD 1.2.1 (UTC 2008-12-04)
Audio #1
ID : 1
Format : AC-3
Format/Info : Audio Coding 3
Mode extension : CM (complete main)
Codec ID : 2000
Duration : 1h 45mn
Bit rate mode : Constant
Bit rate : 448 Kbps
Channel(s) : 6 channels
Channel positions : Front: L C R, Side: L R, LFE
Sampling rate : 48.0 KHz
Bit depth : 16 bits
Compression mode : Lossy
Stream size : 339 MiB (24%)
Alignment : Split accross interleaves
Interleave, duration : 42 ms (1.00 video frame)
Interleave, preload duration : 500 ms



4779b5aff6eb5879bd9dfae5db5534a6f5100fd7Тюремщик / Screwed (Рег Тревисс / Reg Traviss, Драма, 2011) [DVDRip , Любительский (двуголосый, закаровый)] Тюремщик / Screwed (Рег Тревисс / Reg Traviss, Драма, 2011) [DVDRip , Любительский (двуголосый, закаровый)] " />

Аплоадер: Админ, дата: 10-10-2011, 13:03, торрент скачан: 359 раз

Понравилась раздача? Посмотрите эти:
  • Вирус / Flu (Ким Сон Су, Драма, 2013) [HDTVRip, Любительский (двухголосый з ...
  • Похищенный сын: История Тиффани Рубин / Taken from Me: The Tiffany Rubin St ...
  • Орудие смерти / A-i-deul... (Ли Гю Ман, Триллер, криминал, 2011) [DVDRip, П ...
  • Верное дельце / Une pure affaire (Александр Коффре, Боевик, Комедия, Кримин ...
  • Икона сезона (Сергей Швыдкой,Драма, комедия, 2013) [DVDRip, Не требуется]
  • Мужество / Wymyk (Грег Зглински, драма, 2011) [DVDRip, Любительский (одного ...
  • Решала (Роман Асхаев, Драма,Криминал, 2012) [WEB-DLRip, Не требуется]
  • Альбатрос / Albatross (Найал МакКормик, Драма, 2011) [DVDRip, Профессиональ ...
  • Звук моего голоса / Sound of My Voice (Зал Батманглидж, триллер, драма, 201 ...
  • 23:59 / 23:59 (Гилберт Чан, Ужасы, 2011) [HDRip, Любительский (одноголосый ...
  • МЫ. Верим в любовь / W.E. (Мадонна, Драма, мелодрама, история, 2011) [BDRip ...
  • Воин / The One Warrior (Том Стаут, фантастика, 2011) [DVDRip,Оригинал,Профе ...
  • Плохая актриса / Bad Actress (Роберт Ли Кинг, комедия, 2011) [DVDRip, Профе ...
  • Тюремщик / Screwed (Рег Тревисс, драма, 2011) [HDRip, Любительский (двухгол ...
  • Дом ветра (Вячеслав Златопольский, Драма, 2011) [DVDRip, Не требуется]
  • Захват / Carjacked (Джон Бонито, триллер, 2011)[BDRip, Профессиональный (мн ...
  • Захватывающие рассказы Шрэкa / Shreks Thrilling Tales (Майк Митчел, Мультфи ...
  • Неделя в NBA с В.Гомельским / НТВ+ [28.06.2011, SD, XviD, RU, SAT]
  • Скуби-Ду: Нападение Пантазаура / Scooby-Doo! Legend of the Phantosaur (Дугл ...
  • Тюремщик / Screwed (Рег Тревисс, Драма, 2011) [DVDRip, Любительский (двухго ...
  • Влюбленные (Валерий Бебко, Комедия, 2011) [DVDRip, Оригинал]
  • Трус / Faintheart (Вито Рокко, Комедия, 2008) [BDRip, Профессиональный (дву ...
  • Супершторм в Сиэтле / Seattle Superstorm (Джейсон Бурк, фантастика, боевик ...
  • Девушки в опасности / Damsels in Distress (Уит Стиллман, драма, мелодрама, ...
  • Смертельный заложник / Bian Jing Feng Yun (Эр Чэн, Драма, Криминал, 2012) [ ...
  • Информация
    Посетители, находящиеся в группе Гости, не могут оставлять комментарии к данной публикации.