вход на сайт

Имя пользователя :
Пароль :

Восстановление пароля Регистрация
Девушка по вызову / The Girlfriend Experience (Стивен Содерберг, Драма, 2009) [HDRip-AVC, Профессиональный (многоголосый, закадровый) by Torrent Club]
Рейтинг:
(голосов: 1)



[img]{THEME}/images/logopost.png[/img]



Девушка по вызову / The Girlfriend Experience

Слоган "See it with someone you ****"

Год выпуска: 2009
Страна: США
Производство: 2929 Productions
Жанр: драма

Режиссёр: Стивен Содерберг
В ролях: Саша Грэй, Крис Сантос, Филип Эйтан, T. Colby Trane, Питер Зиззо, Рон Стейн, Маршалл Гилман, Майкл Робертс, Vincent Dellacera, Джим Кемпнер

Перевод: Профессиональный (многоголосый, закадровый)
Озвучка: [СОЮЗ-ВИДЕО]
Субтитры: отсутствуют

Описание:
Героиня фильма — высококлассная девушка по вызову, которая предлагает своим клиентам больше, чем просто секс. Ее услуги стоят дорого, и позволить себе проводить с ней время могут лишь состоятельные бизнесмены. Зато те, кто попробовал, хотят встретиться с ней снова…



Доп. информация:

Релиз от :
Премьера: ▼ремьера (мир) 20 января 2009, ...
премьера (РФ) 22 октября 2009, «Каскад»
релиз на DVD 3 декабря 2009, «Союз-Видео»

Тех. данные:
Качество: HDRip - AVC(исходник BDRip 720p)
Продолжительность: 01:16:28 час.

Формат: MKV
Видео кодек: x264
Аудио кодек: AС3
Видео: 1024x432 (2.35:1), 23.976 fps, ~2259 kbps avg, 0.213 bit/pixel
Аудио: 48 kHz, Audio Coding 3, 6 ch, ~256.00 kbps avg
"MediaInfo" ▼TextОбщее
Уникальный идентификатор : 254381909834742780424259663834997851079 (0xBF602C7AA017968DAAEB6B05193003C7)
Полное имя : C:UsersШапагатDesktopThe.GirlFriend.Experience.2009.hdrip-avc.mkv
Формат : Matroska
Версия формата : Version 2
Размер файла : 1,35 Гбайт
Продолжительность : 1 ч. 16 м.
Общий поток : 2516 Кбит/сек
Дата кодирования : UTC 2011-08-02 04:29:07
Программа кодирования : mkvmerge v4.5.0 (Speed of Light) сборка от Feb 15 2011 12:50:20
Библиотека кодирования : libebml v1.2.0 + libmatroska v1.1.0

Видео
Идентификатор : 1
Формат : AVC
Формат/Информация : Advanced Video Codec
Профиль формата : [email protected]
Параметр CABAC формата : Да
Параметр ReFrames формата : 6 кадров
Идентификатор кодека : V_MPEG4/ISO/AVC
Продолжительность : 1 ч. 16 м.
Битрейт : 2259 Кбит/сек
Ширина : 1024 пикс.
Высота : 432 пикс.
Соотношение сторон : 2,35:1
Частота кадров : 23,976 кадр/сек
Цветовое пространство : YUV
Подвыборка цветности : 4:2:0
Битовая глубина : 8 бит
Тип развёртки : Прогрессивная
Бит/(Пиксели*Кадры) : 0.213
Размер потока : 1,19 Гбайт (88%)
Библиотека кодирования : x264 core 114 r1913 5fd3dce
Настройки программы : cabac=1 / ref=6 / deblock=1:-1:-1 / analyse=0x3:0x133 / me=umh / subme=8 / psy=1 / psy_rd=1.00:0.20 / mixed_ref=1 / me_range=24 / chroma_me=1 / trellis=2 / 8x8dct=1 / cqm=0 / deadzone=21,11 / fast_pskip=0 / chroma_qp_offset=-3 / threads=3 / sliced_threads=0 / nr=0 / decimate=1 / interlaced=0 / constrained_intra=0 / bframes=8 / b_pyramid=2 / b_adapt=2 / b_bias=0 / direct=3 / weightb=1 / open_gop=0 / weightp=2 / keyint=250 / keyint_min=23 / scenecut=40 / intra_refresh=0 / rc=2pass / mbtree=0 / bitrate=2259 / ratetol=1.0 / qcomp=0.60 / qpmin=0 / qpmax=69 / qpstep=4 / cplxblur=20.0 / qblur=0.5 / ip_ratio=1.40 / pb_ratio=1.30 / aq=1:1.00
Коэффициенты матрицы : BT.709-5, BT.1361, IEC 61966-2-4 709, SMPTE RP177

Аудио
Идентификатор : 2
Формат : AC-3
Формат/Информация : Audio Coding 3
Расширение режима : CM (complete main)
Идентификатор кодека : A_AC3
Продолжительность : 1 ч. 16 м.
Вид битрейта : Постоянный
Битрейт : 256 Кбит/сек
Каналы : 6 каналов
Расположение каналов : Front: L C R, Side: L R, LFE
Частота : 48,0 КГц
Битовая глубина : 16 бит
Метод сжатия : С потерями
Размер потока : 141 Мбайт (10%)



Раздача группы: Наши раздачи
Набор в группу




ffd0d91196bcf445574168a0c4a695e7354cbf99Девушка по вызову / The Girlfriend Experience (Стивен Содерберг, Драма, 2009) [HDRip-AVC, Профессиональный (многоголосый, закадровый) by Torrent Club] Девушка по вызову / The Girlfriend Experience (Стивен Содерберг, Драма, 2009) [HDRip-AVC, Профессиональный (многоголосый, закадровый) by Torrent Club] " />

Аплоадер: Админ, дата: 2-08-2011, 14:30, торрент скачан: 359 раз

Понравилась раздача? Посмотрите эти:
  • Голливудский мусор / Garbage (Филипп Волкен, драма, комедия, 2013) [HDTVRip ...
  • Даю год / I Give It a Year (Дэн Мазер, мелодрама, комедия, 2012) [BDRip-AVC ...
  • Ну ты и придурок! / You Stupid Man (Брайан Барнс, мелодрама, комедия, 2002) ...
  • Суррогат / The Sessions (Бен Луин, Драма, 2012) [BDRip-AVC, Профессиональны ...
  • Ошибка телохранителя / The Girl from the Naked Eye (Дэвид Рен, боевик, трил ...
  • Девушка по вызову / The Girlfriend Experience (Стивен Содерберг, драма, 200 ...
  • Измученный / The Tortured (Роберт Либерман, ужасы, триллер, драма, 2010) [H ...
  • Короли улиц 2 / Street Kings 2: Motor City (Крис Фишер, Боевик, драма, крим ...
  • Немыслимое / Unthinkable (Грегор Джордан, триллер, драма, 2009) [HDRip - AV ...
  • Белый слон / Elephant White (Прачья Пинкаю, боевик, триллер, криминал, 2011 ...
  • Двенадцать / Twelve (Джоэл Шумахер, триллер, драма, 2010) [HDRip-AVC, Профе ...
  • Путь воина / The Warriors Way (Снгму Ли, фэнтези, боевик, вестерн, 2010) [H ...
  • Человек с Земли / The Man from Earth (Ричард Шенкман, фантастика, драма, 20 ...
  • Обещать - не значит жениться / Hes Just Not That Into You (Кен Куопис, драм ...
  • Страшно красив / Beastly (Даниел Барнз, фэнтези, драма, мелодрама, 2011) [H ...
  • Заражение / Contagion (Стивен Содерберг, триллер, драма, 2011) [BDRip-AVC, ...
  • Иностранный легион / La cité (Ким Нгуйен / Kim Nguyen, драма, 2010) [DVDRip ...
  • Нянька по вызову / The Rebound (Барт Фрейндлих, мелодрама, комедия, 2009) [ ...
  • Финишная прямая / La ligne droite (Режис Варнье, драма, спорт, 2011) [HDRip ...
  • Наёмные убийцы / Contract Killers (Джастин Б. Родс, Боевик, 2009) [HDRip-AV ...
  • Немыслимое / Unthinkable (Грегор Джордан, триллер, драма, 2009) [BDRip 720p ...
  • Девушка по вызову / The Girlfriend Experience (Стивен Содерберг, Драма, 200 ...
  • Заражение / Contagion (Стивен Содерберг, Фантастика, 2011) [BDRip 1080p, Пр ...
  • Павшая империя / Hirokin (Алехо Мо-Сан, фантастика, боевик, драма, приключе ...
  • Девушка по вызову / The Girlfriend Experience (Стивен Содерберг, Драма, 200 ...
  • Информация
    Посетители, находящиеся в группе Гости, не могут оставлять комментарии к данной публикации.