вход на сайт

Имя пользователя :
Пароль :

Восстановление пароля Регистрация
Обнаженные тела / Body Shots (Майкл Кристофер, драма, 1999) [DVDRip, Профессиональный (многоголосый, закадровый)]+ Оригинал
Рейтинг:
(голосов: 1)



[img]{THEME}/images/logopost.png[/img]



Обнаженные тела / Body Shots

Год выпуска: 1999
Страна: США
Производство: New Line Cinema
Жанр: драма

Режиссёр: Майкл Кристофер
В ролях: Шон Патрик Флэнери, Джерри О`Коннелл, Аманда Пит, Тара Рид, Рон Ливингстон, Эмили Проктер, Брэд Роу, Сибил Темчен, Джо Басиле, Скотт Баркхолдер

Перевод: Профессиональный (многоголосый, закадровый)
Субтитры: Отсутствуют

Описание:
Среди прочих развлечений эти ребята предпочитают хороший секс! Вот и в тот вечер они отправились в известный ночной клуб, чтобы обновить ощущения.

Но даже когда знаешь о сексе все — не избежать сюрпризов! Поэтому впереди их ждет захватывающая ночь! Только о том, что же произошло с каждым из них, они узнают на следующее утро…
Дополнительно:
Релиз от :
Рейтинг MPAA: ▼
Рейтинг R - Лицам до 17 лет обязательно присутствие взрослого



MediaInfo ▼Text
Общее
Полное имя :F:TorrentTempObnashenie tela.avi
Формат :AVI
Размер :1.36 GiB
Продолжительность :01:45:44.046
Общий поток :1 843 Kbps

Видео
Идентификатор :0
Формат :MPEG-4 Visual
Профиль формата :Advanced [email protected]
Параметр BVOP формата :No
Параметр Qpel формата :No
Параметр GMC формата :0
Параметр Matrix формата :Custom
Идентификатор кодека :XVID
Продолжительность :1h 45mn 44s 46ms
Битрейт :1 509 Kbps
Ширина :720 pixels
Высота :320 pixels
Соотношение сторон :2.250
Частота кадров :23.976 fps
Глубина цвета :8 bits
Подвыборка цветности :4:2:0
Цветовое пространство :YUV
Тип развертки :Progressive
Бит/(Пиксели*Кадры) :0.273
Размер потока :1.11 GiB (82%)
Библиотека кодирования :XviD0050

Аудио #1
Идентификатор :1
Формат :MPEG Audio
Идентификатор кодека :55
Продолжительность :01:45:43.837
Вид битрейта :Constant
Битрейт :160 Kbps
Канал(ы) :2 channels
Частота :44.1 KHz
Метод сжатия :Lossy
Размер потока :121 MiB (9%)
Язык :Russian / g

Аудио #2
Идентификатор &
23a5aecbcd5009229d9b5b6e4fefe32facb544a8Обнаженные тела / Body Shots (Майкл Кристофер, драма, 1999) [DVDRip, Профессиональный (многоголосый, закадровый)]+ Оригинал Обнаженные тела / Body Shots (Майкл Кристофер, драма, 1999) [DVDRip, Профессиональный (многоголосый, закадровый)]+ Оригинал " />

Аплоадер: Админ, дата: 27-07-2011, 13:51, торрент скачан: 359 раз

Понравилась раздача? Посмотрите эти:
  • Индеец-беглец / The Indian Runner (Шон Пенн, драма, 1991) [DVDRip, Професси ...
  • МакКейб и миссис Миллер / McCabe & Mrs. Miller (Роберт Олтмен, драма, весте ...
  • Обязательства / The Commitments (Алан Паркер, драма, комедия, музыка, 1991) ...
  • Невинный / Linnocente (Лукино Висконти, драма, мелодрама, 1976) [DVDRip, Пр ...
  • Спасите тигра / Save the Tiger (Джон Г. Эвилдсен, драма, 1973) [DVDRip, Про ...
  • С террасы / From the Terrace (Марк Робсон, драма, мелодрама, 1960) [DVDRip, ...
  • Подмена / Switch (Блейк Эдвардс, фэнтези, комедия, криминал, 1991) [DVDRip, ...
  • Состояние сердца / Heart Condition (Джеймс Д. Пэрриотт, фэнтези, боевик, др ...
  • Последняя пуля / The Last Bullet (Майкл Паттинсон, боевик, драма, военный, ...
  • Кошка на раскаленной крыше / Cat on a Hot Tin Roof (Ричард Брукс, драма, 19 ...
  • Беовульф / Beowulf (Грэм Бейкер, ужасы, фантастика, боевик, 1999) [DVDRip, ...
  • Вальсирующие / Les valseuses (Бертран Блие, драма, комедия, криминал, 1966) ...
  • Жить, чтобы жить / Vivre Pour Vivre (Клод Лелуш, драма, 1967) [DVDRip, Проф ...
  • Скорпион / Scorpio (Майкл Уиннер, драма, триллер, детектив, 1973) [DVDRip, ...
  • Осенняя соната / Hostsonaten (Ингмар Бергман, драма, музыка, 1978) [DVDRip, ...
  • Консьерж / For Love or Money (Барри Зонненфельд, Мелодрама, комедия, 1993) ...
  • Квадрофения / Quadrophenia (Фрэнк Роддэм, драма, криминал, музыка, 1979) [H ...
  • Конвейер / Blue Collar (Пол Шредер, драма, криминал, 1977) [DVDRip, Професс ...
  • Подержанные автомобили / Used Cars (Роберт Земекис, комедия, 1980) [DVDRip, ...
  • Расплата кровью / The Man Who Came Back (Глен Питре, боевик, драма, вестерн ...
  • Повышение / The Promotion (Стив Конрад, Комедия, 2008) [DVDRip, Профессиона ...
  • Уик-энд / Week End (Жан-Люк Годар, драма, комедия, 1967) [DVDRip, Профессио ...
  • Громовое сердце / Thunderheart (Майкл Эптед, триллер, криминал, детектив, в ...
  • Влюбленный гастролер / Sweet talker (Майкл Дженкинс, Комедия, 1991) [DVDRip ...
  • Достопочтенный джентльмен / The Distinguished Gentleman (Джонатан Линн, Ком ...
  • Информация
    Посетители, находящиеся в группе Гости, не могут оставлять комментарии к данной публикации.