вход на сайт

Имя пользователя :
Пароль :

Восстановление пароля Регистрация
Экипаж / Flight (Роберт Земекис, Драма, 2012) [BDRip-AVC, Профессиональный (полное дублирование) + Sub]
Рейтинг:
(голосов: 1)



[img]{THEME}/images/logopost.png[/img]



Экипаж / Flight

Год выпуска: 2012
Страна: США
Производство: ImageMovers, Paramount Pictures, Parkes/MacDonald Productions
Жанр: Драма

Режиссёр: Роберт Земекис
В ролях: Дензел Вашингтон, Келли Райлли, Брюс Гринвуд, Дон Чидл, Джон Гудмен, Тамара Тюни, Брайан Джерати, Мелисса Лео, Надин Веласкес, Майкл Бисли

Перевод: Профессиональный (полное дублирование)
Субтитры: Русские, Английские

Описание: Опытный пилот Уип Вайтекер чудом избегает крушения самолета, и, совершив аварийную посадку, сохраняет жизни практически всех пассажиров. Уипа чествуют, как героя, но чем больше появляется подробностей о катастрофе, тем больше вопросов возникает: что же на самом деле произошло на борту самолёта…





Качество: BDRip-AVC | исх.Blu-Ray 1080p.HDClub
Продолжительность: 02:18:35

Формат: MKV
Видео кодек: x.264
Аудио кодек: AC3
Видео: 1008 x 420 (2.40 :1), 23.976 fps, AVC, 1120 Кbps, 0.11 bit/pixel
Аудио: 48 kHz, AC3 Dolby Digital, 3/2 (L,C,R,l,r) + LFE ch, ~384.00 kbps avg

Премьера (мир): 14 октября 2012
Премьера (РФ): 15 ноября 2012, «Централ Партнершип»

Media Info ▼General
Unique ID : 245805679973429983775848259933077354556 (0xB8EC73B3659B4D278D03575A2161B83C)
Complete name : D:Ekipazh.2012.BDRip-AVC.mkv
Format : Matroska
Format version : Version 2
File size : 1.46 GiB
Duration : 2h 18mn
Overall bit rate mode : Variable
Overall bit rate : 1 509 Kbps
Encoded date : UTC 2013-02-23 16:13:20
Writing application : mkvmerge v5.8.0 (No Sleep / Pillow) built on Sep 2 2012 15:37:04
Writing library : libebml v1.2.3 + libmatroska v1.3.0

Video
ID : 1
Format : AVC
Format/Info : Advanced Video Codec
Format profile : [email protected]
Format settings, CABAC : Yes
Format settings, ReFrames : 9 frames
Codec ID : V_MPEG4/ISO/AVC
Duration : 2h 18mn
Bit rate mode : Variable
Bit rate : 1 120 Kbps
Maximum bit rate : 40.0 Mbps
Width : 1 008 pixels
Height : 420 pixels
Display aspect ratio : 2.40:1
Frame rate : 23.976 fps
Color space : YUV
Chroma subsampling : 4:2:0
Bit depth : 8 bits
Scan type : Progressive
Bits/(Pixel*Frame) : 0.110
Stream size : 1.06 GiB (73%)
Writing library : x264 core 129 r2245 bc13772
Encoding settings : cabac=1 / ref=9 / deblock=1:-2:-1 / analyse=0x3:0x113 / me=umh / subme=11 / psy=1 / psy_rd=0.95:0.00 / mixed_ref=1 / me_range=48 / chroma_me=1 / trellis=2 / 8x8dct=1 / cqm=0 / deadzone=21,11 / fast_pskip=0 / chroma_qp_offset=-2 / threads=6 / lookahead_threads=1 / sliced_threads=0 / nr=0 / decimate=1 / interlaced=0 / bluray_compat=0 / constrained_intra=0 / bframes=10 / b_pyramid=2 / b_adapt=2 / b_bias=0 / direct=3 / weightb=1 / open_gop=0 / weightp=2 / keyint=240 / keyint_min=24 / scenecut=40 / intra_refresh=0 / rc=2pass / mbtree=0 / bitrate=1120 / ratetol=1.0 / qcomp=0.70 / qpmin=0 / qpmax=69 / qpstep=4 / cplxblur=20.0 / qblur=0.5 / ip_ratio=1.40 / pb_ratio=1.20 / aq=2:0.9
Default : Yes
Forced : No

Audio
ID : 2
Format : AC-3
Format/Info : Audio Coding 3
Mode extension : CM (complete main)
Codec ID : A_AC3
Duration : 2h 18mn
Bit rate mode : Constant
Bit rate : 384 Kbps
Channel(s) : 6 channels
Channel positions : Front: L C R, Side: L R, LFE
Sampling rate : 48.0 KHz
Bit depth : 16 bits
Compression mode : Lossy
Stream size : 381 MiB (25%)
Title : Dub
Language : Russian
Default : Yes
Forced : No

Text #1
ID : 3
Format : UTF-8
Codec ID : S_TEXT/UTF8
Codec ID/Info : UTF-8 Plain Text
Title : Forced
Language : Russian
Default : Yes
Forced : No

Text #2
ID : 4
Format : UTF-8
Codec ID : S_TEXT/UTF8
Codec ID/Info : UTF-8 Plain Text
Title : CEE
Language : Russian
Default : No
Forced : No

Text #3
ID : 5
Format : UTF-8
Codec ID : S_TEXT/UTF8
Codec ID/Info : UTF-8 Plain Text
Title : R5
Language : Russian
Default : No
Forced : No

Text #4
ID : 6
Format : UTF-8
Codec ID : S_TEXT/UTF8
Codec ID/Info : UTF-8 Plain Text
Title : voronine
Language : Russian
Default : No
Forced :
8c1b3d9ece5755950db74b135546c827412e86d5Экипаж / Flight (Роберт Земекис, Драма, 2012) [BDRip-AVC, Профессиональный (полное дублирование) + Sub] Экипаж / Flight (Роберт Земекис, Драма, 2012) [BDRip-AVC, Профессиональный (полное дублирование) + Sub] " />

Аплоадер: Админ, дата: 24-02-2013, 12:08, торрент скачан: 359 раз

Понравилась раздача? Посмотрите эти:
  • Экипаж / Flight (Роберт Земекис, Драма, 2012) [BDRip-AVC, Профессиональный ...
  • Экипаж / Flight (Роберт Земекис, драма, 2012) [BDRip-AVC, Дублированный + С ...
  • 42 / 42 (Брайан Хелгеленд, Драма, биография, спорт, 2013) [BDRip 720p, Проф ...
  • Цель Номер Один / Zero Dark Thirty (Кэтрин Бигелоу, Триллер, драма, история ...
  • Жизнь Пи / Life Of Pi (Энг Ли, Драма, приключения, 2012) [BDRip 1080p, Проф ...
  • 007: Координаты «Скайфолл» / Skyfall (Сэм Мендес, Боевик, триллер, криминал ...
  • Экипаж / Flight (Роберт Земекис, Драма, 2012) [BDRip-AVC, Профессиональный ...
  • Экипаж / Flight (Роберт Земекис, Драма, 2012) [BDRip, Профессиональный (пол ...
  • Экипаж / Flight (Роберт Земекис, Драма, 2012) [BDRip-AVC, Профессиональный ...
  • Покорители Волн / Chasing Mavericks (Майкл Эптед, Кёртис Хэнсон, Драма, спо ...
  • Экипаж / Flight (Роберт Земекис, Драма, 2012) [BDRip-AVC, Профессиональный ...
  • Суррогат / The Sessions (Бен Луин, драма, 2012) [BDRip 720p, Профессиональн ...
  • Экипаж / Flight (Роберт Земекис, драма, 2012) [ВDRip (720р), Дубляж, Профес ...
  • Экипаж / Flight (Роберт Земекис, драма, 2012) [BDRip 1080p, Профессиональны ...
  • Зубная фея 2 / Tooth Fairy 2 (Алекс Замм, комедия, семейный, 2012) [BDRip 7 ...
  • Фантомы / Shutter (Масаюки Очиай, ужасы, триллер, детектив, 2008) [BDRip-AV ...
  • Вампирский засос / Vampires Suck (Джейсон Фридберг, Аарон Зельцер, комедия, ...
  • Ведьмина гора / Race to Witch Mountain (Энди Фикмен / Andy Fickman, фантаст ...
  • Жажда странствий / Wanderlust (Дэвид Уэйн, Мелодрама, комедия, 2012) [BDRip ...
  • Немножко женаты / The Five-Year Engagement (Николас Столлер, Мелодрама, ком ...
  • Красные огни / Red Lights (Родриго Кортес, Ужасы, триллер, драма, 2012) [BD ...
  • [ENG] Крутые кексы / High School (Джон Сталберг, комедия, 2010) [BDRip 720p ...
  • Кот в сапогах / Puss in Boots (Крис Миллер, мультфильм, 2011) [ВDRip-AVC, П ...
  • Домашняя работа / The Art of Getting By (Гэвин Вьесен, драма, мелодрама, 20 ...
  • Хижина в лесу / The Cabin in the Woods (Дрю Годдард, Ужасы, фантастика, три ...
  • Информация
    Посетители, находящиеся в группе Гости, не могут оставлять комментарии к данной публикации.