вход на сайт

Имя пользователя :
Пароль :

Восстановление пароля Регистрация
Экипаж / Flight (Роберт Земекис, Драма, 2012) [BDRip-AVC, Профессиональный (полное дублирование) + Sub]
Рейтинг:
(голосов: 1)



[img]{THEME}/images/logopost.png[/img]



• Экипаж / Flight •
-

Год выпуска: 2012
Страна: США
Производство: ImageMovers, Paramount Pictures, Parkes/MacDonald Productions
Жанр: Драма

Режиссёр: Роберт Земекис
В ролях: Дензел Вашингтон, Келли Райлли, Брюс Гринвуд, Дон Чидл, Джон Гудмен, Тамара Тюни, Брайан Джерати, Мелисса Лео, Надин Веласкес, Майкл Бисли

Перевод: Профессиональный (полное дублирование)
Субтитры: Русские (форс. + полные), Украинские (форс. + полные), Английские

Описание: Опытный пилот Уип Вайтекер чудом избегает крушения самолета, и, совершив аварийную посадку, сохраняет жизни практически всех пассажиров. Уипа чествуют, как героя, но чем больше появляется подробностей о катастрофе, тем больше вопросов возникает: что же на самом деле произошло на борту самолёта…Дата премьеры (мир): 14 октября 2012
Дата премьеры (РФ): 15 ноября 2012, «Централ Партнершип»

Релиз от:
Автор рипа: Vaippp

Качество: BDRip-AVC |Сэмпл | Сравнение скриншотов с этой раздачей
Продолжительность: 02:18:35


Формат: MKV
Видео кодек: H.264
Аудио кодек: AC3
Видео: 1056x440 (2,40:1), 23,976 fps, AVC, 1806 Кbps, 0.162 bit/pixel
Аудио: 48 kHz, AC3 Dolby Digital, 3/2 (L,C,R,l,r) + LFE ch, ~448.00 kbps avg | RUS


MediaInfo ▼TextGeneral
Format : Matroska
Format version : Version 4 / Version 2
File size : 2.18 GiB
Duration : 2h 18mn
Overall bit rate : 2 256 Kbps
Movie name : Flight (2012) - HQ-ViDEO
Encoded date : UTC 2013-02-22 17:42:42
Writing application : mkvmerge v6.0.0 (Coming Up For Air) built on Jan 20 2013 09:52:00
Writing library : libebml v1.3.0 + libmatroska v1.4.0

Video
ID : 1
Format : AVC
Format/Info : Advanced Video Codec
Format profile : [email protected]
Format settings, CABAC : Yes
Format settings, ReFrames : 11 frames
Codec ID : V_MPEG4/ISO/AVC
Duration : 2h 18mn
Bit rate : 1 806 Kbps
Width : 1 056 pixels
Height : 440 pixels
Display aspect ratio : 2.40:1
Frame rate mode : Constant
Frame rate : 23.976 fps
Color space : YUV
Chroma subsampling : 4:2:0
Bit depth : 8 bits
Scan type : Progressive
Bits/(Pixel*Frame) : 0.162
Stream size : 1.71 GiB (78%)
Title : Vaippp @ 1806 Kbps
Writing library : x264 core 129 r2245 bc13772
Encoding settings : cabac=1 / ref=11 / deblock=1:-3:-2 / analyse=0x3:0x133 / me=umh / subme=11 / psy=1 / psy_rd=1.00:0.00 / mixed_ref=1 / me_range=24 / chroma_me=1 / trellis=2 / 8x8dct=1 / cqm=0 / deadzone=21,11 / fast_pskip=0 / chroma_qp_offset=-2 / threads=12 / lookahead_threads=2 / sliced_threads=0 / nr=0 / decimate=0 / interlaced=0 / bluray_compat=0 / constrained_intra=0 / bframes=12 / b_pyramid=2 / b_adapt=2 / b_bias=0 / direct=3 / weightb=1 / open_gop=0 / weightp=2 / keyint=240 / keyint_min=22 / scenecut=40 / intra_refresh=0 / rc_lookahead=60 / rc=2pass / mbtree=0 / bitrate=1806 / ratetol=1.0 / qcomp=0.65 / qpmin=0 / qpmax=69 / qpstep=4 / cplxblur=20.0 / qblur=0.5 / vbv_maxrate=50000 / vbv_bufsize=50000 / nal_hrd=none / ip_ratio=1.30 / pb_ratio=1.30 / aq=1:0.95 / zones=189780,199367,q=35
Language : English
Default : Yes
Forced : No
Color primaries : BT.709
Transfer characteristics : BT.709
Matrix coefficients : BT.709

Audio
ID : 2
Format : AC-3
Format/Info : Audio Coding 3
Mode extension : CM (complete main)
Format settings, Endianness : Big
Codec ID : A_AC3
Duration : 2h 18mn
Bit rate mode : Constant
Bit rate : 448 Kbps
Channel(s) : 6 channels
Channel positions : Front: L C R, Side: L R, LFE
Sampling rate : 48.0 KHz
Bit depth : 16 bits
Compression mode : Lossy
Stream size : 444 MiB (20%)
Title : AC3 DD 5.1 @ 448 Kbps - Blu-Ray EUR
Language : Russian
Default : Yes
Forced : Yes

Text #1
ID : 3
Format : UTF-8
Codec ID : S_TEXT/UTF8
Codec ID/Info : UTF-8 Plain Text
Title : Forced
Language : Russian
Default : Yes
Forced : Yes

Text #2
ID : 4
Format : UTF-8
Codec ID : S_TEXT/UTF8
Codec ID/Info : UTF-8 Plain Text
Title : Full
Language : Russian
Default : No
Forced : No

Text #3
ID : 5
Format : UTF-8
Codec ID : S_TEXT/UTF8
Codec ID/Info :
c7ee4327a41bd618c3e1aed155de18d2f1398864Экипаж / Flight (Роберт Земекис, Драма, 2012) [BDRip-AVC, Профессиональный (полное дублирование) + Sub] Экипаж / Flight (Роберт Земекис, Драма, 2012) [BDRip-AVC, Профессиональный (полное дублирование) + Sub] " />

Аплоадер: Админ, дата: 23-02-2013, 14:45, торрент скачан: 359 раз

Понравилась раздача? Посмотрите эти:
  • Экипаж / Flight (Роберт Земекис, Драма, 2012) [BDRip-AVC, Профессиональный ...
  • Экипаж / Flight (Роберт Земекис, драма, 2012) [BDRip-AVC, Дублированный + С ...
  • Иллюзия обмана / Now You See Me [Theatrical Cut] (Луи Летерье / Louis Leter ...
  • Невозможное / Lo imposible (Хуан Антонио Байона, драма, 2012) [BDRip-AVC, П ...
  • Цель Номер Один / Zero Dark Thirty (Кэтрин Бигелоу, Триллер, драма, история ...
  • Экипаж / Flight (Роберт Земекис, Драма, 2012) [BDRip, Дубляж]
  • Экипаж / Flight (Роберт Земекис, драма, 2012) [BDRip-AVC, Дублированный + А ...
  • Экипаж / Flight (Роберт Земекис, драма, 2012) [480x200] [HDRip, Профессиона ...
  • Экипаж / Flight (Роберт Земекис, драма, 2012) [HDRip-AVC, Авторский (одного ...
  • Экипаж / Flight (Роберт Земекис, Драма, 2012) [BDRip, Профессиональный (дву ...
  • Экипаж / Flight (Роберт Земекис, Драма, 2012) [BDRip-AVC, Профессиональный ...
  • Экипаж / Flight (Роберт Земекис, Драма, 2012) [HDRip-AVC, Профессиональный ...
  • Экипаж / Flight (Роберт Земекис, Драма, 2012) [BDRip, Профессиональный (пол ...
  • Экипаж / Flight (Роберт Земекис, драма, 2012) [HDRip-AVC, Профессиональный ...
  • Экипаж / Flight (Роберт Земекис, Драма, 2012) [BDRip-AVC, Профессиональный ...
  • Экипаж / Flight (Роберт Земекис, Драма, 2012) [BDRip-AVC, Профессиональный ...
  • Экипаж / Flight (Роберт Земекис, Драма, 2012) [Blu-Ray [CEE] 1080p, Дубляж, ...
  • Экипаж / Flight (Роберт Земекис, драма, 2012) [ВDRip (720р), Дубляж, Профес ...
  • Экипаж / Flight (Роберт Земекис, драма, 2012) [BDRip 1080p, Профессиональны ...
  • Хранитель времени / Hugo (Мартин Скорсезе, Драма, 2011) [BDRip-AVC, Професс ...
  • Хранитель времени / Hugo (Мартин Скорсезе, Драма, 2011) [BDRip-AVC, Професс ...
  • Коллекционер 2 / The Collection (Маркус Данстэн, ужасы, боевик, триллер , 2 ...
  • Кот в сапогах / Puss in Boots (Крис Миллер, мультфильм, 2011) [ВDRip-AVC, П ...
  • [Трейлер #1] Экипаж / Flight (Роберт Земекис, драма) [BDRip 1080p, Гланц (A ...
  • [Трейлер/Тизер] Экипаж / Flight (Роберт Земекис, драма) [WEBRip, Дублирова ...
  • Информация
    Посетители, находящиеся в группе Гости, не могут оставлять комментарии к данной публикации.