вход на сайт

Имя пользователя :
Пароль :

Восстановление пароля Регистрация
Простые истины / Straight As (Джеймс Кокс, драма, комедия, 2013) [HDRip, Профессиональный (многоголосый закадровый)]
Рейтинг:
(голосов: 1)



[img]{THEME}/images/logopost.png[/img]



•Простые истины / Straight As•

♥ Год выпуска: 2013
♥ Страна: США
♥ Производство: Group Films, The, Millennium Films, Nu Image Films
♥ Жанр: драма, комедия

♥ Режиссёр: Джеймс Кокс
♥ В ролях: Анна Пэкуин, Райан Филипп, Люк Уилсон, Пауэрс Бут, Райли Стюарт, Урсула Паркер, Криста Кэмпбелл, Тесс Харпер, Симона Левин, Джонни Браннон

♥ Перевод: Профессиональный (многоголосый закадровый)
♥ Озвучка: НТВ +
♥ Субтитры: Отсутствуют
♥ Описание: Молодой человек на протяжении десяти лет регулярно проходил курс лечения в реабилитационном центре. По настоянию духа его покойной матери он возвращается к родным, от которых отдалился много лет назад. В результате он встречается со своим братом и его женой, которая до сих пор в него влюблена.



♥ Качество: HDRip
♥ Продолжительность: 01:28:20 час.

♥ Формат: AVI
♥ Видео кодек: XviD
♥ Аудио кодек: AC3
♥ Видео: 720x304 (2,35:1), 23,976 fps, XviD build 50 ~2 013 kbps avg, 0.383 bit/pixel
♥ Аудио1: 48 kHz, AC3 Dolby Digital, 3/2 (L R) ch, ~192 kbps
♥ Дата премьеры (мир): 16 января 2013
MediaInfo: ▼Text
General
Complete name : D:Prostye.istiny.2013.P.HDRip.avi
Format : AVI
Format/Info : Audio Video Interleave
File size : 1.37 GiB
Duration : 1h 28mn
Overall bit rate : 2 214 Kbps
Writing application : VirtualDubMod 1.5.10.2 (build 2540/release)
Writing library : VirtualDubMod build 2540/release
Video #0
ID : 0
Format : MPEG-4 Visual
Format profile : Advanced [email protected]
Format settings, BVOP : 2
Format settings, QPel : No
Format settings, GMC : No warppoints
Format settings, Matrix : Default (MPEG)
Muxing mode : Packed bitstream
Codec ID : XVID
Codec ID/Hint : XviD
Duration : 1h 28mn
Bit rate : 2 013 Kbps
Width : 720 pixels
Height : 304 pixels
Display aspect ratio : 2.35:1
Frame rate : 23.976 fps
Color space : YUV
Chroma subsampling : 4:2:0
Bit depth : 8 bits
Scan type : Progressive
Compression mode : Lossy
Bits/(Pixel*Frame) : 0.383
Stream size : 1.24 GiB (91%)
Writing library : XviD 1.2.1 (UTC 2008-12-04)
Audio #1
ID : 1
Format : AC-3
Format/Info : Audio Coding 3
Mode extension : CM (complete main)
Codec ID : 2000
Duration : 1h 28mn
Bit rate mode : Constant
Bit rate : 192 Kbps
Channel(s) : 2 channels
Channel positions : Front: L R
Sampling rate : 48.0 KHz
Bit depth : 16 bits
Compression mode : Lossy
Stream size : 121 MiB (9%)
Alignment : Split accross interleaves
Interleave, duration : 42 ms (1.00 video frame)
Interleave, preload duration : 500 ms
Релиз Группы "Virtus"

Стол заказов / Вступление в РГ / Благодарности, критика и другое



aecd0808300a6899cff7a99cf27c9b10b832b541Простые истины / Straight As (Джеймс Кокс, драма, комедия, 2013) [HDRip, Профессиональный (многоголосый закадровый)] Простые истины / Straight As (Джеймс Кокс, драма, комедия, 2013) [HDRip, Профессиональный (многоголосый закадровый)] " />

Аплоадер: Админ, дата: 22-02-2013, 13:46, торрент скачан: 359 раз

Понравилась раздача? Посмотрите эти:
  • Погнали! / Getaway (Кортни Соломон, Боевик, Криминал, 2013) [HDRip, Професс ...
  • Вирус / Flu (Ким Сон Су, Драма, 2013) [HDTVRip, Любительский (двухголосый з ...
  • Верное дельце / Une pure affaire (Александр Коффре, Боевик, Комедия, Кримин ...
  • Мои герои / Mes heros (Эрик Беснард, комедия, 2012) [HDRip, Профессиональны ...
  • Посылка / The Package (Джесси Джонсон, боевик, 2013) [HDRip, Профессиональн ...
  • Мужество / Wymyk (Грег Зглински, драма, 2011) [DVDRip, Любительский (одного ...
  • 42 / 42 (Брайан Хелгеленд, драма, биография, спорт, 2013) [BDRip, Профессио ...
  • Простые истины / Straight As (Джеймс Кокс, драма, комедия, 2012) [BDRip-AVC ...
  • Сломленные / Broken (Руфус Норрис, драма, 2012) [HDRip, Профессиональный (м ...
  • Звук моего голоса / Sound of My Voice (Зал Батманглидж, триллер, драма, 201 ...
  • 23:59 / 23:59 (Гилберт Чан, Ужасы, 2011) [HDRip, Любительский (одноголосый ...
  • Простые истины / Straight As (Джеймс Кокс, Драма, Комедия, 2013) [DVDRip, П ...
  • Простые истины / Straight As (Джеймс Кокс, Драма, Комедия, 2013) [HDRip, Пр ...
  • Любовь на кончиках пальцев / Populaire (Режис Ройнсар, Мелодрама, комедия, ...
  • Безопасность не гарантируется / Safety Not Guaranteed (Колин Треворроу, фан ...
  • В хлам / Smashed (Джеймс Понсольдт, Драма, комедия, 2012) [HDRip, Профессио ...
  • Суперстар / Superstar (Ксавье Джианноли, Драма, комедия, 2012) [HDRip, Проф ...
  • Плохая актриса / Bad Actress (Роберт Ли Кинг, комедия, 2011) [DVDRip, Профе ...
  • Доля ангелов / The Angels Share (Кен Лоуч, драма, комедия, 2012) [HDRip, Пр ...
  • Захват / Carjacked (Джон Бонито, триллер, 2011)[BDRip, Профессиональный (мн ...
  • Tank Feat. T.I. & Kris Stephens / Compliments [2012, RnB,Hip-Hop, HDRip]
  • Супершторм в Сиэтле / Seattle Superstorm (Джейсон Бурк, фантастика, боевик ...
  • Три балбеса / The Three Stooges (Бобби Фаррелли, Питер Фаррелли, Комедия, 2 ...
  • Девушки в опасности / Damsels in Distress (Уит Стиллман, драма, мелодрама, ...
  • Глаз шторма / The Eye of the Storm (Фред Скеписи, Драма, 2011) [HDRip, Проф ...
  • Информация
    Посетители, находящиеся в группе Гости, не могут оставлять комментарии к данной публикации.