вход на сайт

Имя пользователя :
Пароль :

Восстановление пароля Регистрация
Экипаж / Flight (Роберт Земекис, Драма, 2012) [BDRip-AVC, Профессиональный (полное дублирование) + Оригинал (английский) + Sub]
Рейтинг:
(голосов: 1)



[img]{THEME}/images/logopost.png[/img]



• Экипаж / Flight •
-

Год выпуска: 2012
Страна: США
Производство: ImageMovers, Paramount Pictures, Parkes/MacDonald Productions
Жанр: Драма

Режиссёр: Роберт Земекис
В ролях: Дензел Вашингтон, Келли Райлли, Брюс Гринвуд, Дон Чидл, Джон Гудмен, Тамара Тюни, Брайан Джерати, Мелисса Лео, Надин Веласкес, Майкл Бисли

Перевод: Профессиональный (полное дублирование) + Оригинал (английский)
Субтитры: Русские, Английские UTF-8 (full)

Описание: Опытный пилот Уип Вайтекер чудом избегает крушения самолета, и, совершив аварийную посадку, сохраняет жизни практически всех пассажиров. Уипа чествуют, как героя, но чем больше появляется подробностей о катастрофе, тем больше вопросов возникает: что же на самом деле произошло на борту самолёта…Дата премьеры (мир): 14 октября 2012
Дата премьеры (РФ): 15 ноября 2012, «Централ Партнершип»

Релиз от:
Автор рипа: AVT83

Качество: BDRip-AVC |Сэмпл
Продолжительность: 02:18:35


Формат: MKV
Видео кодек: H.264
Аудио кодек: AC3
Видео: 1280x536 (2,40:1), 23,976 fps, AVC, 2885 Кbps, 0.175 bit/pixel
Аудио #1: 48 kHz, AC3 Dolby Digital, 3/2 (L,C,R,l,r) + LFE ch, ~448.00 kbps avg | RUS
Аудио #2: 48 kHz, AC3 Dolby Digital, 3/2 (L,C,R,l,r) + LFE ch, ~448.00 kbps avg | ENG


MediaInfo ▼TextGeneral
Format : Matroska
Format version : Version 2
File size : 3.66 GiB
Duration : 2h 18mn
Overall bit rate : 3 783 Kbps
Movie name : [email protected]
Encoded date : UTC 2013-02-21 00:58:39
Writing application : mkvmerge v4.0.0 (The Stars were mine) built on Jun 6 2010 16:18:42
Writing library : libebml v1.0.0 + libmatroska v1.0.0

Video
ID : 1
Format : AVC
Format/Info : Advanced Video Codec
Format profile : [email protected]
Format settings, CABAC : Yes
Format settings, ReFrames : 11 frames
Codec ID : V_MPEG4/ISO/AVC
Duration : 2h 18mn
Bit rate : 2 885 Kbps
Width : 1 280 pixels
Height : 536 pixels
Display aspect ratio : 2.40:1
Frame rate : 23.976 fps
Color space : YUV
Chroma subsampling : 4:2:0
Bit depth : 8 bits
Scan type : Progressive
Bits/(Pixel*Frame) : 0.175
Stream size : 2.72 GiB (74%)
Writing library : x264 core 119 r2106 07efeb4
Encoding settings : cabac=1 / ref=11 / deblock=1:-2:-1 / analyse=0x3:0x113 / me=umh / subme=10 / psy=1 / psy_rd=0.97:0.10 / mixed_ref=1 / me_range=32 / chroma_me=1 / trellis=2 / 8x8dct=1 / cqm=0 / deadzone=21,11 / fast_pskip=0 / chroma_qp_offset=-3 / threads=6 / sliced_threads=0 / nr=0 / decimate=0 / interlaced=0 / bluray_compat=0 / constrained_intra=0 / bframes=11 / b_pyramid=2 / b_adapt=2 / b_bias=0 / direct=3 / weightb=1 / open_gop=0 / weightp=2 / keyint=240 / keyint_min=24 / scenecut=40 / intra_refresh=0 / rc=2pass / mbtree=0 / bitrate=2885 / ratetol=1.0 / qcomp=0.65 / qpmin=0 / qpmax=69 / qpstep=4 / cplxblur=20.0 / qblur=0.5 / ip_ratio=1.40 / pb_ratio=1.30 / aq=1:0.90
Language : English
Default : No
Forced : No

Audio #1
ID : 2
Format : AC-3
Format/Info : Audio Coding 3
Mode extension : CM (complete main)
Format settings, Endianness : Big
Codec ID : A_AC3
Duration : 2h 18mn
Bit rate mode : Constant
Bit rate : 448 Kbps
Channel(s) : 6 channels
Channel positions : Front: L C R, Side: L R, LFE
Sampling rate : 48.0 KHz
Bit depth : 16 bits
Compression mode : Lossy
Stream size : 444 MiB (12%)
Title : Дубляж R5
Language : Russian
Default : Yes
Forced : No

Audio #2
ID : 3
Format : AC-3
Format/Info : Audio Coding 3
Mode extension : CM (complete main)
Format settings, Endianness : Big
Codec ID : A_AC3
Duration : 2h 18mn
Bit rate mode : Constant
Bit rate : 448 Kbps
Channel(s) : 6 channels
Channel positions : Front: L C R, Side: L R, LFE
Sampling rate : 48.0 KHz
Bit depth : 16 bits
Compression mode : Lossy
Stream size : 444 MiB (12%)
Title : Оригинал
Language : English
Default : No
Forced : No

Text #1
ID : 4
Format : UTF-8
Codec ID : S_TEXT/UTF8
Codec ID/Info : UTF-8 Plain Text
Title : full
Language : Russian
Default : No
Forced : No

Text #2
ID : 5
Form
e2c8baa4fb04839e75163bb42d507eea73f8bb36Экипаж / Flight (Роберт Земекис, Драма, 2012) [BDRip-AVC, Профессиональный (полное дублирование) + Оригинал (английский) + Sub] Экипаж / Flight (Роберт Земекис, Драма, 2012) [BDRip-AVC, Профессиональный (полное дублирование) + Оригинал (английский) + Sub] " />

Аплоадер: Админ, дата: 21-02-2013, 18:30, торрент скачан: 359 раз

Понравилась раздача? Посмотрите эти:
  • Экипаж / Flight (Роберт Земекис, Драма, 2012) [BDRip-AVC, Профессиональный ...
  • Экипаж / Flight (Роберт Земекис, драма, 2012) [BDRip-AVC, Дублированный + С ...
  • Экипаж / Flight (Роберт Земекис, Драма, 2012) [BDRip, Дубляж]
  • Экипаж / Flight (Роберт Земекис, драма, 2012) [BDRip-AVC, Дублированный + А ...
  • Экипаж / Flight (Роберт Земекис, драма, 2012) [480x200] [HDRip, Профессиона ...
  • Экипаж / Flight (Роберт Земекис, драма, 2012) [HDRip-AVC, Авторский (одного ...
  • Экипаж / Flight (Роберт Земекис, Драма, 2012) [BDRip, Профессиональный (дву ...
  • Экипаж / Flight (Роберт Земекис, Драма, 2012) [BDRip-AVC, Профессиональный ...
  • Экипаж / Flight (Роберт Земекис, Драма, 2012) [HDRip-AVC, Профессиональный ...
  • Экипаж / Flight (Роберт Земекис, Драма, 2012) [BDRip, Профессиональный (пол ...
  • Покорители Волн / Chasing Mavericks (Майкл Эптед, Кёртис Хэнсон, Драма, спо ...
  • Экипаж / Flight (Роберт Земекис, драма, 2012) [HDRip-AVC, Профессиональный ...
  • Экипаж / Flight (Роберт Земекис, Драма, 2012) [BDRip-AVC, Профессиональный ...
  • Экипаж / Flight (Роберт Земекис, Драма, 2012) [BDRip-AVC, Профессиональный ...
  • Экипаж / Flight (Роберт Земекис, Драма, 2012) [Blu-Ray [CEE] 1080p, Дубляж, ...
  • Экипаж / Flight (Роберт Земекис, драма, 2012) [ВDRip (720р), Дубляж, Профес ...
  • Экипаж / Flight (Роберт Земекис, драма, 2012) [BDRip 1080p, Профессиональны ...
  • Коллекционер 2 / The Collection (Маркус Данстэн, ужасы, боевик, триллер , 2 ...
  • [Трейлер #1] Экипаж / Flight (Роберт Земекис, драма) [BDRip 1080p, Гланц (A ...
  • [Трейлер/Тизер] Экипаж / Flight (Роберт Земекис, драма) [WEBRip, Дублирова ...
  • Информация
    Посетители, находящиеся в группе Гости, не могут оставлять комментарии к данной публикации.