вход на сайт

Имя пользователя :
Пароль :

Восстановление пароля Регистрация
Покорители Волн / Chasing Mavericks (Майкл Эптед, Кёртис Хэнсон, Драма, спорт, 2012) [BDRip-AVC, Профессиональный (полное дублирование) + Оригинал (английский) + Sub]
Рейтинг:
(голосов: 1)



[img]{THEME}/images/logopost.png[/img]



• Покорители волн / Chasing Mavericks•
«Самые опасные волны на планете изменят их навсегда»

Год выпуска: 2012
Страна: США
Производство: Fox 2000 Pictures, Walden Media
Жанр: Драма, спорт

Режиссёр: Майкл Эптед, Кёртис Хэнсон
В ролях: Джерард Батлер, Джонни Уэстон, Элизабет Шу, Эбигейл Спенсер, Ливэн Рамбин, Грег Лонг, Питер Мэл, Зэк Уормхудт, Девин Криттенден, Тейлор Хэндли

Перевод: Профессиональный (полное дублирование) + Оригинал (английский)
Субтитры: Русские, английские

Описание: Серфинг — спорт королей. Не каждый сможет справиться с огромными волнами у побережья Калифорнии. Их называют Мавериксами, они достигают 25 метров в высоту. Хессон не раз покорял стихию, но не раскрыл своего секрета никому. Он дал обещание любимой женщине — больше не рисковать жизнью. Но смелость юного Джей подкупила Хессона. Смогут ли они, глядя смерти в лицо, удержаться на гребне волны?Дата премьеры (мир): 25 октября 2012
Дата премьеры (РФ): 8 ноября 2012, «UPI»

Качество: BDRip-AVC |Сэмпл
Продолжительность: 01:56:30


Формат: MKV
Видео кодек: H.264
Аудио кодек: AC3
Видео: 960x518 (1.85:1), 23,976 fps, AVC, 1788 Кbps, 0.150 bit/pixel
Аудио #1: 48 kHz, AC3 Dolby Digital, 3/2 (L,C,R,l,r) + LFE ch, ~448.00 kbps avg | RUS
Аудио #2: 48 kHz, AC3 Dolby Digital, 3/2 (L,C,R,l,r) + LFE ch, ~448.00 kbps avg | ENG

"Mediainfo:" ▼TextGeneral
Format : Matroska
Format version : Version 4 / Version 2
File size : 2.18 GiB
Duration : 1h 56mn
Overall bit rate : 2 685 Kbps
Encoded date : UTC 2013-02-20 20:06:35
Writing application : mkvmerge v6.0.0 (Coming Up For Air) built on Jan 20 2013 09:52:00
Writing library : libebml v1.3.0 + libmatroska v1.4.0

Video
ID : 1
Format : AVC
Format/Info : Advanced Video Codec
Format profile : [email protected]
Format settings, CABAC : Yes
Format settings, ReFrames : 11 frames
Codec ID : V_MPEG4/ISO/AVC
Duration : 1h 56mn
Bit rate : 1 788 Kbps
Width : 960 pixels
Height : 518 pixels
Display aspect ratio : 1.85:1
Frame rate mode : Constant
Frame rate : 23.976 fps
Color space : YUV
Chroma subsampling : 4:2:0
Bit depth : 8 bits
Scan type : Progressive
Bits/(Pixel*Frame) : 0.150
Stream size : 1.41 GiB (65%)
Writing library : x264 core 119 r2106 07efeb4
Encoding settings : cabac=1 / ref=11 / deblock=1:-2:-1 / analyse=0x3:0x113 / me=umh / subme=9 / psy=1 / psy_rd=1.00:0.10 / mixed_ref=1 / me_range=32 / chroma_me=1 / trellis=2 / 8x8dct=1 / cqm=0 / deadzone=21,11 / fast_pskip=1 / chroma_qp_offset=-3 / threads=6 / sliced_threads=0 / nr=0 / decimate=1 / interlaced=0 / bluray_compat=0 / constrained_intra=0 / bframes=10 / b_pyramid=2 / b_adapt=2 / b_bias=0 / direct=3 / weightb=1 / open_gop=0 / weightp=2 / keyint=240 / keyint_min=23 / scenecut=40 / intra_refresh=0 / rc_lookahead=80 / rc=2pass / mbtree=1 / bitrate=1788 / ratetol=1.0 / qcomp=0.60 / qpmin=0 / qpmax=69 / qpstep=4 / cplxblur=20.0 / qblur=0.5 / ip_ratio=1.40 / aq=2:0.90
Language : English
Default : Yes
Forced : No

Audio #1
ID : 2
Format : AC-3
Format/Info : Audio Coding 3
Mode extension : CM (complete main)
Format settings, Endianness : Big
Codec ID : A_AC3
Duration : 1h 56mn
Bit rate mode : Constant
Bit rate : 448 Kbps
Channel(s) : 6 channels
Channel positions : Front: L C R, Side: L R, LFE
Sampling rate : 48.0 KHz
Bit depth : 16 bits
Compression mode : Lossy
Stream size : 373 MiB (17%)
Language : Russian
Default : Yes
Forced : No

Audio #2
ID : 3
Format : AC-3
Format/Info : Audio Coding 3
Mode extension : CM (complete main)
Format settings, Endianness : Big
Codec ID : A_AC3
Duration : 1h 56mn
Bit rate mode : Constant
Bit rate : 448 Kbps
Channel(s) : 6 channels
Channel positions : Front: L C R, Side: L R, LFE
Sampling rate : 48.0 KHz
Bit depth : 16 bits
Compression mode : Lossy
Stream size : 373 MiB (17%)
Language : English
Default : No
Forced : No

Text #1
ID : 4
Format : UTF-8
Codec ID : S_TEXT/UTF8
Codec ID/Info : UTF-8 Plain Text
Language : Russian
Default :
141a6b1ea913ac8508e3a93cc160826671a2ed71Покорители Волн / Chasing Mavericks (Майкл Эптед, Кёртис Хэнсон, Драма, спорт, 2012) [BDRip-AVC, Профессиональный (полное дублирование) + Оригинал (английский) + Sub] Покорители Волн / Chasing Mavericks (Майкл Эптед, Кёртис Хэнсон, Драма, спорт, 2012) [BDRip-AVC, Профессиональный (полное дублирование) + Оригинал (английский) + Sub] " />

Аплоадер: Админ, дата: 21-02-2013, 03:55, торрент скачан: 359 раз

Понравилась раздача? Посмотрите эти:
  • 42 / 42 (Брайан Хелгеленд, Драма, биография, спорт, 2013) [BDRip 720p, Проф ...
  • Хроника / Chronicle (Джошуа Транк, фантастика, боевик, триллер, драма, 2012 ...
  • Соучастник / Collateral (Майкл Манн, Триллер, драма, криминал, 2004) [BDRip ...
  • Покорители Волн / Chasing Mavericks (Майкл Эптед, Кёртис Хэнсон, Драма, спо ...
  • Хичкок / Hitchcock (Саша Джерваси, Драма, история, биография, 2012) [BDRip- ...
  • Жизнь Пи / Life Of Pi (Энг Ли, Драма, приключения, 2012) [BDRip 720p, Профе ...
  • Жизнь Пи / Life Of Pi (Энг Ли, Драма, приключения, 2012) [BDRip 1080p, Проф ...
  • [iPhone, iPod] Покорители волн / Chasing Mavericks (Майкл Эптед, Драма, Спо ...
  • Покорители Волн / Chasing Mavericks (Майкл Эптед, Кёртис Хэнсон, драма, спо ...
  • Покорители Волн / Chasing Mavericks (Майкл Эптед, Кёртис Хэнсон, драма, спо ...
  • Покорители Волн / Chasing Mavericks (Майкл Эптед, Кёртис Хэнсон, Драма, спо ...
  • Покорители Волн / Chasing Mavericks (Майкл Эптед, Кёртис Хэнсон, Драма, спо ...
  • Покорители волн / Chasing Mavericks (Майкл Эптед, Кёртис Хэнсон, драма, спо ...
  • Экипаж / Flight (Роберт Земекис, Драма, 2012) [BDRip-AVC, Профессиональный ...
  • Покорители Волн / Chasing Mavericks (Майкл Эптед, Кёртис Хэнсон, Драма, спо ...
  • Покорители волн / Chasing Mavericks (Майкл Эптед, Кёртис Хэнсон, Драма, спо ...
  • Экипаж / Flight (Роберт Земекис, Драма, 2012) [BDRip-AVC, Профессиональный ...
  • Покорители Волн / Chasing Mavericks (Майкл Эптед, Кёртис Хэнсон, Драма, спо ...
  • Покорители Волн / Chasing Mavericks (Майкл Эптед, Кёртис Хэнсон, Драма, спо ...
  • Покорители Волн / Chasing Mavericks (Майкл Эптед, Кёртис Хэнсон, Драма, спо ...
  • Хранитель времени / Hugo (Мартин Скорсезе, Драма, 2011) [BDRip-AVC, Професс ...
  • Черное золото / Black Gold (Жан-Жак Анно, Драма, 2011) [BDRip-AVC, Професси ...
  • Коллекционер 2 / The Collection (Маркус Данстэн, ужасы, боевик, триллер , 2 ...
  • Домашняя работа / The Art of Getting By (Гэвин Вьесен, драма, мелодрама, 20 ...
  • [Трейлер] Покорители волн / Chasing Mavericks (Майкл Эптид, драма, спорт) ...
  • Информация
    Посетители, находящиеся в группе Гости, не могут оставлять комментарии к данной публикации.