вход на сайт

Имя пользователя :
Пароль :

Восстановление пароля Регистрация
Экипаж / Flight (Роберт Земекис, Драма, 2012) [BDRip, Профессиональный (полное дублирование)]
Рейтинг:
(голосов: 1)



[img]{THEME}/images/logopost.png[/img]



• Экипаж / Flight •
-

Год выпуска: 2012
Страна: США
Производство: ImageMovers, Paramount Pictures, Parkes/MacDonald Productions
Жанр: драма

Режиссёр: Роберт Земекис
В ролях: Дензел Вашингтон, Келли Райлли, Брюс Гринвуд, Дон Чидл, Джон Гудмен, Тамара Тюни, Брайан Джерати, Мелисса Лео, Надин Веласкес, Майкл Бисли

Перевод: Профессиональный (полное дублирование)
Субтитры: Нет

Описание: Опытный пилот Уип Вайтекер чудом избегает крушения самолета, и, совершив аварийную посадку, сохраняет жизни практически всех пассажиров. Уипа чествуют, как героя, но чем больше появляется подробностей о катастрофе, тем больше вопросов возникает: что же на самом деле произошло на борту самолёта…Дата премьеры (мир): 14 октября 2012
Дата премьеры (РФ): 15 ноября 2012, «Централ Партнершип»

Качество: BDRip |Сэмпл
Продолжительность: 02:18:35


Формат: AVI
Видео кодек: XviD
Аудио кодек: AC3
Видео: 720x304 (2.37:1), 23.976 fps, XviD build 73 ~1303 kbps avg, 0.25 bit/pixel
Аудио#1: 48 kHz, AC3 Dolby Digital, 2/0 (L,R) ch, ~192.00 kbps avg


"Mediainfo:" ▼TextGeneral
Format : AVI
Format/Info : Audio Video Interleave
File size : 1.46 GiB
Duration : 2h 18mn
Overall bit rate : 1 505 Kbps
Writing application : VirtualDubMod 1.5.10.3 | www.virtualdub-fr.org || (build 2550/release)
Writing library : VirtualDubMod build 2550/release
Video #0
ID : 0
Format : MPEG-4 Visual
Format profile : Advanced [email protected]
Format settings, BVOP : Yes
Format settings, QPel : No
Format settings, GMC : No warppoints
Format settings, Matrix : Custom
Codec ID : XVID
Codec ID/Hint : XviD
Duration : 2h 18mn
Bit rate : 1 303 Kbps
Width : 720 pixels
Height : 304 pixels
Display aspect ratio : 2.35:1
Frame rate : 23.976 fps
Color space : YUV
Chroma subsampling : 4:2:0
Bit depth : 8 bits
Scan type : Progressive
Compression mode : Lossy
Bits/(Pixel*Frame) : 0.248
Stream size : 1.26 GiB (87%)
Writing library : XviD 73
Audio #1
ID : 1
Format : AC-3
Format/Info : Audio Coding 3
Mode extension : CM (complete main)
Codec ID : 2000
Duration : 2h 18mn
Bit rate mode : Constant
Bit rate : 192 Kbps
Channel(s) : 2 channels
Channel positions : Front: L R
Sampling rate : 48.0 KHz
Bit depth : 16 bits
Compression mode : Lossy
Stream size : 190 MiB (13%)
Alignment : Split accross interleaves
Interleave, duration : 42 ms (1.00 video frame)
Interleave, preload duration : 500 ms


Релиз Группы "Virtus"

Стол заказов / Вступление в РГ / Благодарности, критика и другое


9874dec83d306f6d05fb71f1a22411eb1f97b8c2Экипаж / Flight (Роберт Земекис, Драма, 2012) [BDRip, Профессиональный (полное дублирование)] Экипаж / Flight (Роберт Земекис, Драма, 2012) [BDRip, Профессиональный (полное дублирование)] " />

Аплоадер: Админ, дата: 21-02-2013, 01:58, торрент скачан: 359 раз

Понравилась раздача? Посмотрите эти:
  • Экипаж / Flight (Роберт Земекис, Драма, 2012) [BDRip-AVC, Профессиональный ...
  • Экипаж / Flight (Роберт Земекис, драма, 2012) [BDRip-AVC, Дублированный + С ...
  • Мужество / Wymyk (Грег Зглински, драма, 2011) [DVDRip, Любительский (одного ...
  • Слепой поворот / Blind Turn (Роберт Орр, Триллер, драма, детектив, 2012) [W ...
  • Экипаж / Flight (Роберт Земекис, Драма, 2012) [BDRip, Дубляж]
  • Экипаж / Flight (Роберт Земекис, драма, 2012) [480x200] [HDRip, Профессиона ...
  • Экипаж / Flight (Роберт Земекис, Драма, 2012) [BDRip, Профессиональный (дву ...
  • Экипаж / Flight (Роберт Земекис, Драма, 2012) [BDRip-AVC, Профессиональный ...
  • Весенние надежды / Hope Springs (Дэвид Фрэнкел, Драма, мелодрама, комедия, ...
  • Покорители Волн / Chasing Mavericks (Майкл Эптед, Кёртис Хэнсон, Драма, спо ...
  • Экипаж / Flight (Роберт Земекис, драма, 2012) [HDRip-AVC, Профессиональный ...
  • Экипаж / Flight (Роберт Земекис, Драма, 2012) [BDRip-AVC, Профессиональный ...
  • Экипаж / Flight (Роберт Земекис, Драма, 2012) [BDRip-AVC, Профессиональный ...
  • Экипаж / Flight (Роберт Земекис, Драма, 2012) [BDRip-AVC, Профессиональный ...
  • Экипаж / Flight (Роберт Земекис, драма, 2012) [ВDRip (720р), Дубляж, Профес ...
  • Экипаж / Flight (Роберт Земекис, драма, 2012) [BDRip 1080p, Профессиональны ...
  • Захват / Carjacked (Джон Бонито, триллер, 2011)[BDRip, Профессиональный (мн ...
  • Коллекционер 2 / The Collection (Маркус Данстэн, ужасы, боевик, триллер , 2 ...
  • [Трейлер #1] Экипаж / Flight (Роберт Земекис, драма) [BDRip 1080p, Гланц (A ...
  • [Трейлер/Тизер] Экипаж / Flight (Роберт Земекис, драма) [WEBRip, Дублирова ...
  • Информация
    Посетители, находящиеся в группе Гости, не могут оставлять комментарии к данной публикации.