вход на сайт

Имя пользователя :
Пароль :

Восстановление пароля Регистрация
Покорители Волн / Chasing Mavericks (Майкл Эптед, Кёртис Хэнсон, Драма, спорт, 2012) [BDRip, Профессиональный (полное дублирование)]
Рейтинг:
(голосов: 1)



[img]{THEME}/images/logopost.png[/img]



• Покорители волн / Chasing Mavericks •
«Самые опасные волны на планете изменят их навсегда»

Год выпуска: 2012
Страна: США
Производство: Fox 2000 Pictures, Walden Media
Жанр: Драма, спорт

Режиссёр: Майкл Эптед, Кёртис Хэнсон
В ролях: Джерард Батлер, Джонни Уэстон, Элизабет Шу, Эбигейл Спенсер, Ливэн Рамбин, Грег Лонг, Питер Мэл, Зэк Уормхудт, Девин Криттенден, Тейлор Хэндли

Перевод: Профессиональный (полное дублирование)
Субтитры: Нет

Описание: Серфинг — спорт королей. Не каждый сможет справиться с огромными волнами у побережья Калифорнии. Их называют Мавериксами, они достигают 25 метров в высоту. Хессон не раз покорял стихию, но не раскрыл своего секрета никому. Он дал обещание любимой женщине — больше не рисковать жизнью. Но смелость юного Джей подкупила Хессона. Смогут ли они, глядя смерти в лицо, удержаться на гребне волны?Дата премьеры (мир): 25 октября 2012
Дата премьеры (РФ): 8 ноября 2012, «UPI»

Качество: BDRip |Сэмпл | Сравнение скриншотов с этой раздачей

Продолжительность: 01:56:30


Формат: AVI
Видео кодек: XviD
Аудио кодек: AC3
Видео: 624x336 (1,85:1), 23.976 fps, XviD build 65 ~757 kbps avg, 0.151 bit/pixel
Аудио: 48 kHz, MPEG Layer 3, 2 ch, ~128.00 kbps avg

"Mediainfo:" ▼TextОбщее
Формат : AVI
Формат/Информация : Audio Video Interleave
Размер файла : 745 Мбайт
Продолжительность : 1 ч. 56 м.
Общий поток : 894 Кбит/сек
Программа кодирования : VirtualDubMod 1.5.10.3 (build 2550/release)
Библиотека кодирования : VirtualDubMod build 2550/release

Видео
Идентификатор : 0
Формат : MPEG-4 Visual
Профиль формата : Advanced [email protected]
Параметр BVOP формата : 1
Параметр QPel формата : Нет
Параметр GMC формата : Без точки перехода
Параметр матрицы формата : Выборочная
Идентификатор кодека : XVID
Идентификатор кодека/Подсказка : XviD
Продолжительность : 1 ч. 56 м.
Битрейт : 757 Кбит/сек
Ширина : 624 пикселя
Высота : 336 пикселей
Соотношение сторон : 1,85:1
Частота кадров : 23,976 кадра/сек
Цветовое пространство : YUV
Субдискретизация насыщенности : 4:2:0
Битовая глубина : 8 бит
Тип развёртки : Прогрессивная
Метод сжатия : С потерями
Бит/(Пиксели*Кадры) : 0.151
Размер потока : 631 Мбайт (85%)
Библиотека кодирования : XviD 64

Аудио
Идентификатор : 1
Формат : MPEG Audio
Версия формата : Version 1
Профиль формата : Layer 3
Режим : Joint stereo
Расширение режима : MS Stereo
Идентификатор кодека : 55
Идентификатор кодека/Подсказка : MP3
Продолжительность : 1 ч. 56 м.
Вид битрейта : Постоянный
Битрейт : 128 Кбит/сек
Каналы : 2 канала
Частота : 48,0 КГц
Метод сжатия : С потерями
Размер потока : 106 Мбайт (14%)
Выравнивание : Соединение по промежуткам
Продолжительность промежутка : 42 мс. (1,00 видеокадр)
Время предзагрузки промежутка : 504 мс.


Релиз Группы "Virtus"

Стол заказов / Вступление в РГ / Благодарности, критика и другое


3f57c4e614e4335baad27619db176e0f1f965a4eПокорители Волн / Chasing Mavericks (Майкл Эптед, Кёртис Хэнсон, Драма, спорт, 2012) [BDRip, Профессиональный (полное дублирование)] Покорители Волн / Chasing Mavericks (Майкл Эптед, Кёртис Хэнсон, Драма, спорт, 2012) [BDRip, Профессиональный (полное дублирование)] " />

Аплоадер: Админ, дата: 20-02-2013, 13:06, торрент скачан: 359 раз

Понравилась раздача? Посмотрите эти:
  • Бойфренд из будущего / About Time (Ричард Кёртис, Фантастика, драма, комеди ...
  • Грязная кампания за честные выборы / The Campaign (Джей Роуч , Комедия,201 ...
  • Слежка / The Letter (Джей Ананья, Триллер, драма, 2012) [DVDRip, Профессион ...
  • Покорители Волн / Chasing Mavericks (Майкл Эптед, Кёртис Хэнсон, Драма, спо ...
  • [iPhone, iPod] Покорители волн / Chasing Mavericks (Майкл Эптед, Драма, Спо ...
  • Покорители Волн / Chasing Mavericks (Майкл Эптед, Кёртис Хэнсон, драма, спо ...
  • Покорители Волн / Chasing Mavericks (Майкл Эптед, Кёртис Хэнсон, драма, спо ...
  • Покорители Волн / Chasing Mavericks (Майкл Эптед, Кёртис Хэнсон, Драма, спо ...
  • Покорители Волн / Chasing Mavericks (Майкл Эптед, Кёртис Хэнсон, Драма, спо ...
  • Покорители волн / Chasing Mavericks (Майкл Эптед, Кёртис Хэнсон, драма, спо ...
  • Покорители Волн / Chasing Mavericks (Майкл Эптед, Кёртис Хэнсон, Драма, спо ...
  • Покорители волн / Chasing Mavericks (Майкл Эптед, Кёртис Хэнсон, Драма, спо ...
  • Покорители Волн / Chasing Mavericks (Майкл Эптед, Кёртис Хэнсон, Драма, спо ...
  • Покорители Волн / Chasing Mavericks (Майкл Эптед, Кёртис Хэнсон, Драма, спо ...
  • Покорители Волн / Chasing Mavericks (Майкл Эптед, Кёртис Хэнсон, Драма, спо ...
  • Легенда о МорДу / The Legend of MorDu (Брайан Ларсен, Короткометражный, ска ...
  • Я тоже хочу (Алексей Балабанов, драма, криминал, 2012) [DVDRip, Не требуетс ...
  • Вечерний Ургант // Сезон 2. Выпуск 56 (ТВ-шоу, 11.12.2012) [SATRip, Не треб ...
  • 1812: Уланская баллада (Олег Фесенко, приключения, 2012) [DVDRip, Не требуе ...
  • Вечерний Ургант // Сезон 2. Выпуск 62 (ТВ-шоу, 19.12.2012) [SATRip, Не треб ...
  • Вечерний Ургант // Сезон 2. Выпуск 63 (ТВ-шоу, 20.12.2012) [SATRip, Не треб ...
  • Вечерний Ургант // Сезон 2. Выпуск 66 (ТВ-шоу, 25.12.2012) [SATRip, Не треб ...
  • Вечерний Ургант // Сезон 2. Выпуск 68 (ТВ-шоу, 27.12.2012) [SATRip, Не треб ...
  • Покорить высоту / Take It to the Limit (Сэм Кит / Sam Kieth, семейный, 2000 ...
  • [Трейлер] Покорители волн / Chasing Mavericks (Майкл Эптид, драма, спорт) ...
  • Информация
    Посетители, находящиеся в группе Гости, не могут оставлять комментарии к данной публикации.