вход на сайт

Имя пользователя :
Пароль :

Восстановление пароля Регистрация
Мертвое поле (Александр Аравин, Драма, военный, 2006) [DVDRip-AVC, Оригинал]
Рейтинг:
(голосов: 1)



[img]{THEME}/images/logopost.png[/img]



«Мертвое поле»

Информация о фильме
Год выпуска: 2006
Страна:Россия
Производство: Кинопроизводящая компания "Дар XXl"
Жанр: Драма, военный

Режиссёр: Александр Аравин
В ролях: Алексей Шевченков, Алексей Бардуков, Иван Стебунов, Эльдар Лебедев, Борис Миронов, Вадим Цаллати, Янина Соколовская, Константин Милованов, Шамиль Хаматов, Михаил Шкловский

Перевод: Оригинал (русский)
Субтитры: нет

Описание

***
События разворачиваются в период второй чеченской кампании на границе Чечни и Ставропольского края. Рядом с посёлком, где живут обыкновенные люди, стоит воинская часть, где служат простые российские солдаты. Подразделением саперов, состоящим в основном из мальчишек-призывников, командует молодой лейтенант, когда-то мечтавший стать летчиком. Он получает приказ разминировать бывшее хлебное поле, на котором никто не сеет уже более 10 лет. Военные и местные жители называют его «мертвым»…

***



Тех.Данные
Качество: DVDRip-AVC
Продолжительность: ~ 01:48:37 часа

Формат: Matroska-MKV-
Видео кодек: AVC [email protected]
Аудио кодек: Audio Coding 3
Видео: 1024x576 (16:9), 25 fps, AVC ~1800 kbps avg, 0.122 bit/pixel
Аудио: 48.00 kHz, AC3, 3/2 (L,C,R,l,r) + L,F,E ch, ~448.00 kbps avg

Информация MediaInfo ▼TextОбщее
Уникальный идентификатор : 194547989946141652485289381125831999467 (0x925C94775351B8BF83F4BF5326DF3FEB)
Полное имя : D:DownloadsМертвое поле.2006.DVDRip-AVC.mkv
Формат : Matroska
Версия формата : Version 2
Размер файла : 1,71 Гбайт
Продолжительность : 1 ч. 48 м.
Общий поток : 2249 Кбит/сек
Дата кодирования : UTC 2013-02-14 10:28:33
Программа кодирования : mkvmerge v5.8.0 (No Sleep / Pillow) built on Sep 2 2012 15:37:04
Библиотека кодирования : libebml v1.2.3 + libmatroska v1.3.0

Видео
Идентификатор : 1
Формат : AVC
Формат/Информация : Advanced Video Codec
Профиль формата : [email protected]
Параметр CABAC формата : Да
Параметр ReFrames формата : 5 кадров
Идентификатор кодека : V_MPEG4/ISO/AVC
Продолжительность : 1 ч. 48 м.
Битрейт : 1800 Кбит/сек
Ширина : 1024 пикселя
Высота : 576 пикселей
Соотношение сторон : 16:9
Частота кадров : 25,000 кадров/сек
Цветовое пространство : YUV
Субдискретизация насыщенности : 4:2:0
Битовая глубина : 8 бит
Тип развёртки : Прогрессивная
Бит/(Пиксели*Кадры) : 0.122
Размер потока : 1,33 Гбайт (78%)
Библиотека кодирования : x264 core 125 r2208 d9d2288
Настройки программы : cabac=1 / ref=5 / deblock=1:-2:-2 / analyse=0x3:0x111 / me=umh / subme=9 / psy=1 / psy_rd=0.00:0.10 / mixed_ref=1 / me_range=32 / chroma_me=1 / trellis=2 / 8x8dct=1 / cqm=0 / deadzone=21,11 / fast_pskip=0 / chroma_qp_offset=-1 / threads=3 / lookahead_threads=1 / sliced_threads=0 / nr=0 / decimate=1 / interlaced=0 / bluray_compat=0 / constrained_intra=0 / bframes=5 / b_pyramid=2 / b_adapt=0 / b_bias=0 / direct=3 / weightb=1 / open_gop=0 / weightp=2 / keyint=250 / keyint_min=25 / scenecut=40 / intra_refresh=0 / rc_lookahead=50 / rc=2pass / mbtree=1 / bitrate=1800 / ratetol=1.0 / qcomp=0.60 / qpmin=0 / qpmax=69 / qpstep=4 / cplxblur=20.0 / qblur=0.5 / ip_ratio=1.40 / aq=1:1.00
Default : Да
Forced : Нет

Аудио
Идентификатор : 2
Формат : AC-3
Формат/Информация : Audio Coding 3
Расширение режима : CM (complete main)
Идентификатор кодека : A_AC3
Продолжительность : 1 ч. 48 м.
Вид битрейта : Постоянный
Битрейт : 448 Кбит/сек
Каналы : 6 каналов
Расположение каналов : Front: L C R, Side: L R, LFE
Частота : 48,0 КГц
Битовая глубина : 16 бит
Метод сжатия : С потерями
Размер потока : 348 Мбайт (20%)
Default : Да
Forced : Нет




18f57ea17a4c05f4c7817c21cc2eda02bca82d8dМертвое поле (Александр Аравин, Драма, военный, 2006) [DVDRip-AVC, Оригинал] Мертвое поле (Александр Аравин, Драма, военный, 2006) [DVDRip-AVC, Оригинал] " />

Аплоадер: Админ, дата: 16-02-2013, 11:04, торрент скачан: 359 раз

Понравилась раздача? Посмотрите эти:
  • [NG] Комета века / Comet of the century (документальный, 2013) [HDTVRip-AVC ...
  • Усатый нянь (Владимир Грамматиков, комедия, семейный, 1977) [DVDRip-AVC, Не ...
  • Интимные места (Наталья Меркулова, Алексей Чупов, драма, мелодрама, 2013) [ ...
  • Башня / The Tower (Чи-хун Ким, драма, 2012) [BDRip-AVC, Любительский (двухг ...
  • А зори здесь тихие... // Эпизоды с 1 по 12 (из 12) (Боевик, драма, военный ...
  • Гараж (Эльдар Рязанов, драма, комедия, 1979) [DVDRip-AVC, Оригинал (русский ...
  • Голливудский мусор / Garbage (Филипп Волкен, драма, комедия, 2013) [HDTVRip ...
  • Кавказский пленник (Сергей Бодров, драма, военный, 1996) [DVDRip-AVC, не тр ...
  • [NG] Война львов / Lion Battle Zone (документальный, 2011) [HDTVRip-AVC, Пр ...
  • Новые технологии войны / The New Technology of War [Часть 1] (документальны ...
  • Новые технологии войны / The New Technology of War [Часть 2] (документальны ...
  • Даю год / I Give It a Year (Дэн Мазер, мелодрама, комедия, 2012) [BDRip-AVC ...
  • Туман 2 (Иван Шурховецкий, фантастика, драма, военный, 2012) [DVDRip-AVC, О ...
  • Дикий запад. Кино и реальность / The Wild And The West (документальный, 200 ...
  • Суррогат / The Sessions (Бен Луин, Драма, 2012) [BDRip-AVC, Профессиональны ...
  • Чемпионат Англии 2012-2013 / 25-й тур / Обзор / Суббота / BBC Sport [2013 г ...
  • Помогите Стать Отцом / Not Suitable For Children (Питер Темплмен, Мелодрама ...
  • Лоракс: Серенада / The Lorax: Serenade (Кайл Балда, мультфильм, комедия, му ...
  • VA (Korn, Flyleaf, Deftones, Dir En Grey, 10 Years, Stone Sour, Deadsy) / F ...
  • Мертвое поле ( Александр Аравин,драма,военный,2006 )[DVDRip,оригинал]
  • Информация
    Посетители, находящиеся в группе Гости, не могут оставлять комментарии к данной публикации.