вход на сайт

Имя пользователя :
Пароль :

Восстановление пароля Регистрация
Покорители Волн / Chasing Mavericks (Майкл Эптед, Кёртис Хэнсон, драма, спорт, 2012) [DVDRip-AVC, Дубляж]
Рейтинг:
(голосов: 1)



[img]{THEME}/images/logopost.png[/img]



Покорители Волн / Chasing Mavericks
«Самые опасные волны на планете изменят их навсегда»

Год выпуска: 2012
Страна: США
Производство: Fox 2000 Pictures, Walden Media
Жанр:драма, спорт

Режиссёр: Майкл Эптед, Кёртис Хэнсон
В ролях: Джерард Батлер, Ливэн Рамбин, Элизабет Шу, Эбигейл Спенсер, Скотт Иствуд, Тейлор Хэндли, Джонни Уэстон, Александр Канеллакос, Дженика Бергер, Чэннон Роу, Купер Тимберлайн, Харли Грэхэм, Стивен Уиг, Кигэн Боос, Девин Криттенден, Энди Арнесс, Ричард Гросс, Сэмми Эллиотт, Мэттью Бингхэм, Майя Рэйнс, Джеймс Энтони Коттон, Дианна Маркс, Майк Ховард, Майкл Акоста, Этьен Вик, Питер Мэл, Марк Лавелл, Кристофер Суини, Монтгомери Полсен, Дерек В. Адам, Хоакин Кано

Перевод: Дубляж
Субтитры: Отсутствуют

Описание: Серфинг — спорт королей. Не каждый сможет справиться с огромными волнами у побережья Калифорнии. Их называют Мавериками, они достигают 25 метров в высоту. Хессон не раз покорял стихию, но не раскрыл своего секрета никому. Он дал обещание любимой женщине — больше не рисковать жизнью. Но смелость юного Джея подкупила Хессона. Смогут ли они, глядя смерти в лицо, удержаться на гребне волны?Дата премьеры (мир): 25 октября 2012
Дата премьеры (РФ): 8 ноября 2012, «UPI»

Качество: DVDRip-AVC
Продолжительность: 01:51:30

Формат: MKV
Видео кодек: x.264
Аудио кодек: AC3
Видео: x.264 / [email protected] / 1.85:1 / 1419 kbps / 25.00 fps / 0.143 bit/pixel
Аудио: 48 kHz, AC3 Dolby Digital, 3/2 (L,C,R,l,r) + LFE ch, ~448.00 kbps avg

Media Info ▼Общее
Формат : Matroska
Версия формата : Version 2
Размер файла : 1,45 Гбайт
Продолжительность : 1 ч. 51 м.
Общий поток : 1867 Кбит/сек
Дата кодирования : UTC 2013-02-05 03:10:00
Программа кодирования : mkvmerge v5.0.1 (Es ist Sommer) built on Nov 6 2011 16:23:40
Библиотека кодирования : libebml v1.2.2 + libmatroska v1.3.0

Видео
Идентификатор : 1
Формат : AVC
Формат/Информация : Advanced Video Codec
Профиль формата : [email protected]
Параметр CABAC формата : Да
Параметр ReFrames формата : 11 кадров
Идентификатор кодека : V_MPEG4/ISO/AVC
Продолжительность : 1 ч. 51 м.
Битрейт : 1419 Кбит/сек
Ширина : 720 пикселей
Высота : 552 пикселя
Соотношение сторон : 1,85:1
Частота кадров : 25,000 кадров/сек
Цветовое пространство : YUV
Субдискретизация насыщенности : 4:2:0
Битовая глубина : 8 бит
Тип развёртки : Прогрессивная
Бит/(Пиксели*Кадры) : 0.143
Размер потока : 1,08 Гбайт (74%)
Библиотека кодирования : x264 core 119 r2106 07efeb4
Настройки программы : cabac=1 / ref=11 / deblock=1:-2:-1 / analyse=0x3:0x113 / me=umh / subme=9 / psy=1 / psy_rd=1.00:0.20 / mixed_ref=1 / me_range=32 / chroma_me=1 / trellis=1 / 8x8dct=1 / cqm=0 / deadzone=21,11 / fast_pskip=0 / chroma_qp_offset=-3 / threads=6 / sliced_threads=0 / nr=0 / decimate=0 / interlaced=0 / bluray_compat=0 / constrained_intra=0 / bframes=8 / b_pyramid=2 / b_adapt=2 / b_bias=0 / direct=3 / weightb=1 / open_gop=0 / weightp=2 / keyint=250 / keyint_min=25 / scenecut=40 / intra_refresh=0 / rc_lookahead=60 / rc=2pass / mbtree=1 / bitrate=1419 / ratetol=1.0 / qcomp=0.60 / qpmin=0 / qpmax=69 / qpstep=4 / cplxblur=20.0 / qblur=0.5 / ip_ratio=1.40 / aq=1:1.00
Default : Да
Forced : Нет

Аудио
Идентификатор : 2
Формат : AC-3
Формат/Информация : Audio Coding 3
Расширение режима : CM (complete main)
Параметр Endianness формата : Big
Идентификатор кодека : A_AC3
Продолжительность : 1 ч. 51 м.
Вид битрейта : Постоянный
Битрейт : 448 Кбит/сек
Каналы : 6 каналов
Расположение каналов : Front: L C R, Side: L R, LFE
Частота : 48,0 КГц
Битовая глубина : 16 бит
Метод сжатия : С потерями
Размер потока : 357 Мбайт (24%)
Default : Да
Forced : Нет



Наши рипы | Набор в РГ | Стол заказов РГ | Новости РГ


ca08ef2a8d3655bafd435f296cee1ae05086ca9fПокорители Волн / Chasing Mavericks (Майкл Эптед, Кёртис Хэнсон, драма, спорт, 2012) [DVDRip-AVC, Дубляж] Покорители Волн / Chasing Mavericks (Майкл Эптед, Кёртис Хэнсон, драма, спорт, 2012) [DVDRip-AVC, Дубляж] " />

Аплоадер: Админ, дата: 5-02-2013, 12:56, торрент скачан: 359 раз

Понравилась раздача? Посмотрите эти:
  • Интимные места (Наталья Меркулова, Алексей Чупов, драма, мелодрама, 2013) [ ...
  • Марафон (Карен Оганесян, комедия, 2013) [DVDRip-AVC, Не требуется]
  • Перелом / Fracture (Грегори Хоблит, Триллер, драма, криминал, детектив, 200 ...
  • 21 и больше / 21 & Over (Джон Лукас, Скотт Мур, комедия, 2013) [DVDRip-AVC, ...
  • Покорители Волн / Chasing Mavericks (Майкл Эптед, Кёртис Хэнсон, Драма, спо ...
  • Убей ради меня / Kill for Me (Майкл Гринспен, триллер, драма, 2013) [DVDRip ...
  • [iPhone, iPod] Покорители волн / Chasing Mavericks (Майкл Эптед, Драма, Спо ...
  • Покорители Волн / Chasing Mavericks (Майкл Эптед, Кёртис Хэнсон, драма, спо ...
  • Толстяк на ринге / Here Comes the Boom (Фрэнк Корачи, Боевик, комедия, 2012 ...
  • Суррогат / The Sessions (Бен Луин, Драма, 2012) [BDRip-AVC, Профессиональны ...
  • Покорители Волн / Chasing Mavericks (Майкл Эптед, Кёртис Хэнсон, Драма, спо ...
  • Покорители Волн / Chasing Mavericks (Майкл Эптед, Кёртис Хэнсон, Драма, спо ...
  • Покорители Волн / Chasing Mavericks (Майкл Эптед, Кёртис Хэнсон, Драма, спо ...
  • Покорители волн / Chasing Mavericks (Майкл Эптед, Кёртис Хэнсон, драма, спо ...
  • Покорители Волн / Chasing Mavericks (Майкл Эптед, Кёртис Хэнсон, Драма, спо ...
  • Покорители волн / Chasing Mavericks (Майкл Эптед, Кёртис Хэнсон, Драма, спо ...
  • Покорители Волн / Chasing Mavericks (Майкл Эптед, Кёртис Хэнсон, Драма, спо ...
  • Покорители Волн / Chasing Mavericks (Майкл Эптед, Кёртис Хэнсон, Драма, спо ...
  • Покорители Волн / Chasing Mavericks (Майкл Эптед, Кёртис Хэнсон, Драма, спо ...
  • Чемпионат Англии 2012-2013 / 25-й тур / Обзор / Суббота / BBC Sport [2013 г ...
  • Самоубийцы (Егор Баранов, комедия, 2012) [DVDRip-AVC, Оригинал]
  • Финишная прямая / La ligne droite (Режис Варнье, драма, спорт, 2011) [HDRip ...
  • Закон доблести / Act of Valor (Майк МакКой, Скотт Во, боевик, триллер, прик ...
  • Помогите Стать Отцом / Not Suitable For Children (Питер Темплмен, Мелодрама ...
  • [Трейлер] Покорители волн / Chasing Mavericks (Майкл Эптид, драма, спорт) ...
  • Информация
    Посетители, находящиеся в группе Гости, не могут оставлять комментарии к данной публикации.