вход на сайт

Имя пользователя :
Пароль :

Восстановление пароля Регистрация
Покорители Волн / Chasing Mavericks (Майкл Эптед, Кёртис Хэнсон, драма, спорт, 2012) [DVDRip, Дубляж]
Рейтинг:
(голосов: 1)



[img]{THEME}/images/logopost.png[/img]



•Покорители Волн / Chasing Mavericks •
«Самые опасные волны на планете изменят их навсегда»
♥ Год выпуска: 2012
♥ Страна: США
♥ Производство: Fox 2000 Pictures, Walden Media
♥ Жанр: драма, спорт

♥ Режиссёр: Майкл Эптед, Кёртис Хэнсон
♥ В ролях: Джерард Батлер, Ливэн Рамбин, Элизабет Шу, Эбигейл Спенсер, Скотт Иствуд, Тейлор Хэндли, Джонни Уэстон, Александр Канеллакос, Дженика Бергер, Чэннон Роу, Купер Тимберлайн, Харли Грэхэм, Стивен Уиг, Кигэн Боос, Девин Криттенден, Энди Арнесс, Ричард Гросс, Сэмми Эллиотт, Мэттью Бингхэм, Майя Рэйнс, Джеймс Энтони Коттон, Дианна Маркс, Майк Ховард, Майкл Акоста, Этьен Вик, Питер Мэл, Марк Лавелл, Кристофер Суини, Монтгомери Полсен, Дерек В. Адам, Хоакин Кано

♥ Перевод: Дубляж
♥ Субтитры: Отсутствуют

♥ Описание: Серфинг — спорт королей. Не каждый сможет справиться с огромными волнами у побережья Калифорнии. Их называют Мавериками, они достигают 25 метров в высоту. Хессон не раз покорял стихию, но не раскрыл своего секрета никому. Он дал обещание любимой женщине — больше не рисковать жизнью. Но смелость юного Джея подкупила Хессона. Смогут ли они, глядя смерти в лицо, удержаться на гребне волны?MediaInfo: ▼
TextGeneral
Complete name : D:Pokorileli.voln.2012.D.DVDRip.avi
Format : AVI
Format/Info : Audio Video Interleave
File size : 1.46 GiB
Duration : 1h 51mn
Overall bit rate : 1 877 Kbps
Writing application : VirtualDubMod 1.5.10.2 (build 2542/release)
Writing library : VirtualDubMod build 2542/release
Video #0
ID : 0
Format : MPEG-4 Visual
Format profile : Advanced [email protected]
Format settings, BVOP : 2
Format settings, QPel : No
Format settings, GMC : No warppoints
Format settings, Matrix : Default (MPEG)
Muxing mode : Packed bitstream
Codec ID : XVID
Codec ID/Hint : XviD
Duration : 1h 51mn
Bit rate : 1 419 Kbps
Width : 720 pixels
Height : 384 pixels
Display aspect ratio : 1.875
Frame rate : 25.000 fps
Color space : YUV
Chroma subsampling : 4:2:0
Bit depth : 8 bits
Scan type : Progressive
Compression mode : Lossy
Bits/(Pixel*Frame) : 0.205
Stream size : 1.10 GiB (76%)
Writing library : XviD 1.2.1 (UTC 2008-12-04)
Audio #1
ID : 1
Format : AC-3
Format/Info : Audio Coding 3
Mode extension : CM (complete main)
Codec ID : 2000
Duration : 1h 51mn
Bit rate mode : Constant
Bit rate : 448 Kbps
Channel(s) : 6 channels
Channel positions : Front: L C R, Side: L R, LFE
Sampling rate : 48.0 KHz
Bit depth : 16 bits
Compression mode : Lossy
Delay relative to video : 462ms
Stream size : 357 MiB (24%)
Alignment : Split accross interleaves
Interleave, duration : 40 ms (1.00 video frame)
Interleave, preload duration : 500 ms
♥ Качество: DVDRip
♥ Продолжительность: 01:51:28

♥ Формат: AVI
♥ Видео кодек: XviD
♥ Аудио кодек: AC3
♥ Видео: 720x384 (1.875), 25 fps, XviD build 50 ~1 419 kbps avg, 0.205 bit/pixel
♥ Аудио1: 48 kHz, AC3 Dolby Digital, 3/6 (L,C,R,l,r) +
f8416605c20d8727ebacc38e92d9730ca5f3eed4Покорители Волн / Chasing Mavericks (Майкл Эптед, Кёртис Хэнсон, драма, спорт, 2012) [DVDRip, Дубляж] Покорители Волн / Chasing Mavericks (Майкл Эптед, Кёртис Хэнсон, драма, спорт, 2012) [DVDRip, Дубляж] " />

Аплоадер: Админ, дата: 5-02-2013, 00:19, торрент скачан: 359 раз

Понравилась раздача? Посмотрите эти:
  • Мужество / Wymyk (Грег Зглински, драма, 2011) [DVDRip, Любительский (одного ...
  • 42 / 42 (Брайан Хелгеленд, драма, биография, спорт, 2013) [BDRip, Профессио ...
  • Чемпионат Германии 2012-2013 / 32-й тур / Обзор матчей / Футбол + (UA) [06. ...
  • Покорители Волн / Chasing Mavericks (Майкл Эптед, Кёртис Хэнсон, Драма, спо ...
  • [iPhone, iPod] Покорители волн / Chasing Mavericks (Майкл Эптед, Драма, Спо ...
  • Покорители Волн / Chasing Mavericks (Майкл Эптед, Кёртис Хэнсон, драма, спо ...
  • Покорители Волн / Chasing Mavericks (Майкл Эптед, Кёртис Хэнсон, Драма, спо ...
  • Покорители Волн / Chasing Mavericks (Майкл Эптед, Кёртис Хэнсон, Драма, спо ...
  • Покорители Волн / Chasing Mavericks (Майкл Эптед, Кёртис Хэнсон, Драма, спо ...
  • Покорители волн / Chasing Mavericks (Майкл Эптед, Кёртис Хэнсон, драма, спо ...
  • Покорители Волн / Chasing Mavericks (Майкл Эптед, Кёртис Хэнсон, Драма, спо ...
  • Покорители волн / Chasing Mavericks (Майкл Эптед, Кёртис Хэнсон, Драма, спо ...
  • Покорители Волн / Chasing Mavericks (Майкл Эптед, Кёртис Хэнсон, Драма, спо ...
  • Покорители Волн / Chasing Mavericks (Майкл Эптед, Кёртис Хэнсон, Драма, спо ...
  • Покорители Волн / Chasing Mavericks (Майкл Эптед, Кёртис Хэнсон, Драма, спо ...
  • Плохая актриса / Bad Actress (Роберт Ли Кинг, комедия, 2011) [DVDRip, Профе ...
  • Чемпионат Европы 2012 / Группа D / 1-й тур / Украина - Швеция / Спорт 1 [11 ...
  • Олимпиада 2012 / Футбол / Мужчины / Группа A / 3-й тур / Великобритания - У ...
  • Чемпионат Англии 2011-12 / 32-й тур / Обзор тура / Спорт 1 [Футбол, 10.04.2 ...
  • [Трейлер] Покорители волн / Chasing Mavericks (Майкл Эптид, драма, спорт) ...
  • Информация
    Посетители, находящиеся в группе Гости, не могут оставлять комментарии к данной публикации.