вход на сайт

Имя пользователя :
Пароль :

Восстановление пароля Регистрация
Ой, вы, гуси... (Лидия Боброва, Драма, 1991) [DVDRip, Не требуется]
Рейтинг:
(голосов: 1)



[img]{THEME}/images/logopost.png[/img]



Ой, вы, гуси...

Год выпуска: 1991
Страна: СССР
Производство: Ленфильм
Жанр: Драма

Режиссёр: Лидия Боброва
В ролях: Вячеслав Соболев, Юрий Бобров, Галина Волкова, Нина Усатова, Светлана Гайтан, Марина Кузнецова, Григорий Попов, А. Половченко, С. Постовалова, Владимир Бобров

Перевод: Не требуется
Субтитры: Отсутствуют

Описание:
Рассказ о жизни в русской глубинке без прикрас. Отснятый в естественной обстановке, с участием в большинстве своем непрофессиональных актеров, фильм вызывает неподдельное ощущение реальности.


Дополнительно:
MediaInfo ▼Text
Общее
Полное имя :L:Ой, вы, гуси!Ой, вы, гуси....avi
Формат :AVI
Размер :1.37 GiB
Продолжительность :01:23:15.200
Общий поток :2 348 Kbps
Программа кодирования :VirtualDubMod 1.5.4.1 (build 2178/release)
Библиотека кодирования :VirtualDubMod build 2178/release

Видео
Идентификатор :0
Формат :MPEG-4 Visual
Профиль формата :Advanced [email protected]
Параметр BVOP формата :1
Параметр Qpel формата :No
Параметр GMC формата :0
Параметр Matrix формата :Custom
Идентификатор кодека :XVID
Продолжительность :1h 23mn 15s 200ms
Битрейт :1 958 Kbps
Ширина :720 pixels
Высота :544 pixels
Соотношение сторон :1.324
Частота кадров :25.000 fps
Глубина цвета :8 bits
Подвыборка цветности :4:2:0
Цветовое пространство :YUV
Тип развертки :Progressive
Бит/(Пиксели*Кадры) :0.200
Размер потока :1.14 GiB (83%)
Библиотека кодирования :XviD0050

Аудио #1
Идентификатор :1
Формат :AC-3
Формат/Информация :Audio Coding 3
Идентификатор кодека :2000
Продолжительность :01:23:10.432
Вид битрейта :Constant
Битрейт :384 Kbps
Канал(ы) :6 channels
Расположение каналов :Front: L C R, Side: L R, LFE
Частота :48.0 KHz
Битовая глубина :16 bits
Метод сжатия :Lossy
Размер потока :228 MiB (16%)Тех. данные:
Качество:DVDRip
Продолжительность:01:23:10 час
&nbs
185343588a6f04832bfbb9fc895ad3cec5e5f1f2Ой, вы, гуси... (Лидия Боброва, Драма, 1991) [DVDRip, Не требуется] Ой, вы, гуси... (Лидия Боброва, Драма, 1991) [DVDRip, Не требуется] " />

Аплоадер: Админ, дата: 4-02-2013, 20:02, торрент скачан: 359 раз

Понравилась раздача? Посмотрите эти:
  • Божья тварь (Галина Данелия-Юркова, комедия, 1991) [DVDRip, Не требуется]
  • Каштанка (Роман Балаян, приключения, 1975) [DVDRip, Не требуется]
  • Дама с собачкой (Иосиф Хейфиц, драма, мелодрама, 1959) [DVDRip, Не требуетс ...
  • Старшина (Николай Кошелев, драма, 1979) [DVDRip, Не требуется]
  • Путевка в Жизнь (Николай Экк, драма, 1931) [DVDRip, Не требуется]
  • Призрак (Никита Орлов, боевик, триллер, 1991) [TVRip, Не требуется]
  • Моя любовь (Владимир Корш-Саблин, мюзикл, мелодрама, комедия, 1940) [DVDRip ...
  • Левша (Сергей Овчаров, драма, комедия, 1986) [DVDRip, Не требуется]
  • Капитанская дочка (Владимир Каплуновский, драма, 1958) [DVDRip, Не требуетс ...
  • Черная чайка (Григорий Колтунов, приключения, 1962) [DVDRip, Не требуется]
  • Фантазеры (Исаак Магитон, И. Сафарова, детский, 1965) [DVDRip, Не требуется ...
  • Ты и я (Лариса Шепитько, драма, 1971) [DVDRip, Не требуется]
  • Мульт-Салют. 6 ч. из 30: Гуси-лебеди/Сказка о рыбаке и рыбке/Волк и семеро ...
  • Печники (Виктор Храмов, драма, 1982) [DVDRip, Не требуется]
  • Дядя Ваня (Андрей Кончаловский, драма, 1971) [DVDRip, Не требуется]
  • Дача (Константин Воинов, комедия, 1974) [DVDRip, Не требуется]
  • Небывальщина (Сергей Овчаров, комедия, 1983) [DVDRip, Не требуется]
  • Царь Иван Грозный (2 части из 2) (Геннадий Васильев, Драма, история, 1991) ...
  • Цареубийца (Карен Шахназаров, Драма, история, 1991) [DVDRip, Не требуется]
  • Карусель (Михаил Швейцер, комедия, 1970) [DVDRip, Не требуется]
  • Танкер «Дербент» (Александр Файнциммер, приключения, 1940) [DVDRip, Не треб ...
  • Старухи (Геннадий Сидоров, Драма, 2003) [DVDRip, Не требуется]
  • Приключения маленького папы (Дмитрий Крупко, детский, комедия, 1979) [DVDRi ...
  • Дядюшкин сон (Константин Воинов, драма, 1966) [DVDRip, Не требуется]
  • Дом на дюнах (Дмитрий Салынский, приключения, 1984) [DVDRip, Не требуется]
  • Информация
    Посетители, находящиеся в группе Гости, не могут оставлять комментарии к данной публикации.