вход на сайт

Имя пользователя :
Пароль :

Восстановление пароля Регистрация
Крученый мяч / Trouble with the Curve (Роберт Лоренц, Драма, 2012) [BDRip-AVC, Профессиональный (многоголосый, закадровый) Студия «Омикрон» + Оригинал + Sub [Rus, Eng]]
Рейтинг:
(голосов: 1)



[img]{THEME}/images/logopost.png[/img]



«Крученый мяч / Trouble with the Curve»

¤Whatever Life Throws at You¤

Информация о фильме
Год выпуска: 2012
Страна: США
Производство: Malpaso Productions, Warner Bros. Pictures
Жанр: драма

Режиссёр: Роберт Лоренц / Robert Lorenz
В ролях: Клинт Иствуд, Джастин Тимберлэйк, Эми Адамс, Джон Гудмен, Боб Гантон, Мэттью Лиллард, Роберт Патрик, Челси Росс, Джордж Уайнер, Эд Лотер

Перевод: Профессиональный (многоголосый, закадровый) +Оригинал (английский) - отдельно
Озвучка: студия «Омикрон»
Субтитры: Sub [Rus, Eng] (вшитые, отключаемые)

Описание
***
История пожилого бейсбольного скаута. Герой постепенно теряет зрение и вместе с дочерью в последний раз отправляется на поиски будущих звезд бейсбола.

***


Тех.Данные
Качество: BDRip-AVC
Продолжительность: ~ 01:51:12 часа

Формат: Matroska-MKV-
Видео кодек: [email protected]
Аудио кодек: Audio Coding 3
Видео: 1056x440 (2.40:1), 23,976 fps, AVC ~2359 kbps avg, 0.212 bit/pixel
Аудио #1: 48.00 kHz, AC 3, 3/2 (L,C,R,l,r) + L,F,E ch, ~384.00 kbps avgРусский
Аудио #2: 48.00 kHz, AC 3, 3/2 (L,C,R,l,r) + L,F,E ch, ~448 kbps avgАнглийский - отдельно

MediaInfo ▼TextОбщее
Уникальный идентификатор : 180923807506534042074011509215262516203 (0x881CA8690CD8E540869A37C50E85A3EB)
Полное имя : D:РаспоковкаКрученый мяч.2012.P.BDRip-AVCКрученый мяч.2012.P.BDRip-AVC.mkv
Формат : Matroska
Версия формата : Version 2
Размер файла : 2,13 Гбайт
Продолжительность : 1 ч. 51 м.
Общий поток : 2744 Кбит/сек
Название фильма : -=POTROKS=-
Дата кодирования : UTC 2013-02-02 16:27:24
Программа кодирования : mkvmerge v5.7.0 (The Whirlwind) built on Jul 8 2012 20:08:51
Библиотека кодирования : libebml v1.2.3 + libmatroska v1.3.0

Видео
Идентификатор : 1
Формат : AVC
Формат/Информация : Advanced Video Codec
Профиль формата : [email protected]
Параметр CABAC формата : Да
Параметр ReFrames формата : 9 кадров
Идентификатор кодека : V_MPEG4/ISO/AVC
Продолжительность : 1 ч. 51 м.
Битрейт : 2359 Кбит/сек
Ширина : 1056 пикселей
Высота : 440 пикселей
Соотношение сторон : 2,40:1
Режим частоты кадров : Переменный
Частота кадров : 23,976 кадра/сек
Цветовое пространство : YUV
Субдискретизация насыщенности : 4:2:0
Битовая глубина : 8 бит
Тип развёртки : Прогрессивная
Бит/(Пиксели*Кадры) : 0.212
Размер потока : 1,79 Гбайт (84%)
Заголовок : Крученый мяч
Библиотека кодирования : x264 core 128 r2216M 198a7ea
Настройки программы : cabac=1 / ref=10 / deblock=1:-2:-1 / analyse=0x3:0x133 / me=umh / subme=11 / psy=1 / psy_rd=1.05:0.00 / mixed_ref=1 / me_range=48 / chroma_me=1 / trellis=2 / 8x8dct=1 / cqm=0 / deadzone=21,11 / fast_pskip=0 / chroma_qp_offset=-2 / threads=4 / lookahead_threads=1 / sliced_threads=0 / nr=0 / decimate=1 / interlaced=0 / bluray_compat=0 / constrained_intra=0 / bframes=11 / b_pyramid=1 / b_adapt=2 / b_bias=0 / direct=3 / weightb=1 / open_gop=0 / weightp=2 / keyint=240 / keyint_min=23 / scenecut=40 / intra_refresh=0 / rc_lookahead=200 / rc=2pass / mbtree=1 / bitrate=2359 / ratetol=1.0 / qcomp=0.70 / qpmin=0 / qpmax=65 / qpstep=4 / cplxblur=20.0 / qblur=0.5 / vbv_maxrate=20000 / vbv_bufsize=25000 / nal_hrd=none / ip_ratio=1.35 / aq=1:0.75
Язык : English
Default : Да
Forced : Нет

Аудио
Идентификатор : 2
Формат : AC-3
Формат/Информация : Audio Coding 3
Расширение режима : CM (complete main)
Идентификатор кодека : A_AC3
Продолжительность : 1 ч. 51 м.
Вид битрейта : Постоянный
Битрейт : 384 Кбит/сек
Каналы : 6 каналов
Расположение каналов : Front: L C R, Side: L R, LFE
Частота : 48,0 КГц
Битовая глубина : 16 бит
Метод сжатия : С потерями
Размер потока : 305 Мбайт (14%)
Заголовок : студия «Омикрон»
Язык : Russian
Default : Да
Forced : Да

Текст #1
Идентификатор : 3
Формат : UTF-8
Идентификатор кодека : S_TEXT/UTF8
Идентификатор к
f9b869e0538a1f23271e7be43d576806fd50fdc0Крученый мяч / Trouble with the Curve (Роберт Лоренц, Драма, 2012) [BDRip-AVC, Профессиональный (многоголосый, закадровый) Студия «Омикрон» + Оригинал + Sub [Rus, Eng]] Крученый мяч / Trouble with the Curve (Роберт Лоренц, Драма, 2012) [BDRip-AVC, Профессиональный (многоголосый, закадровый) Студия «Омикрон» + Оригинал + Sub [Rus, Eng]] " />

Аплоадер: Админ, дата: 3-02-2013, 10:27, торрент скачан: 359 раз

Понравилась раздача? Посмотрите эти:
  • Погнали! / Getaway (Кортни Соломон, боевик, криминал, 2013) [BDRip 1080p, П ...
  • Погнали! / Getaway (Кортни Соломон, боевик, криминал, 2013) [BDRip-AVC, Про ...
  • Башня / The Tower (Чи-хун Ким, драма, 2012) [BDRip-AVC, Любительский (двухг ...
  • Летучий отряд Скотланд-Ярда / The Sweeney (Ник Лав, Боевик, драма, криминал ...
  • Залив / The Bay (Барри Левинсон, Ужасы, фантастика, триллер, 2012) [BDRip-A ...
  • Порочные игры / Stoker (Пак Чхан Ук, Триллер, драма, детектив, 2013) [BDRip ...
  • Порочные игры / Stoker (Пак Чхан Ук, Триллер, драма, детектив, 2013) [BDRip ...
  • Рикошет / Ricochet (Ник Гомез, драма, детектив, 2011) [BDRip-AVC, Профессио ...
  • АББА: фильм / ABBA: The Movie (документальный, драма, музыка, 1977) [BDRip- ...
  • Линкольн / Lincoln (Стивен Спилберг, драма, военный, биография, история, 20 ...
  • Крученый мяч / Trouble with the Curve (Роберт Лоренц, Драма, 2012) [HDRip-A ...
  • Крученый Мяч / Trouble With The Curve (Роберт Лоренц, Драма, 2012) [HDRip, ...
  • Крученый мяч / Trouble with the Curve (Роберт Лоренц, драма, 2012) [HDRip, ...
  • Крученый мяч / Trouble with the Curve (Роберт Лоренц, драма, 2012) [HDRip, ...
  • Суррогат / The Sessions (Бен Луин, Драма, 2012) [BDRip-AVC, Профессиональны ...
  • Образец 47 / Marvel One-Shot: Item 47 (Луис Д’Эспозито, короткометражка, фа ...
  • Дневник слабака 3 / Diary of a Wimpy Kid: Dog Days (Дэвид Бауэрс, Комедия, ...
  • Поворот не туда 5 / Wrong Turn 5 (Деклан О’Брайэн, ужасы, триллер, 2012) [B ...
  • Большой отрыв БОБа / B.O.B.s Big Break (Роберт Портер, короткометражка, ан ...
  • [Трейлер] Крученый мяч / Trouble with the Curve (Роберт Лоренц, драма) [HDR ...
  • Информация
    Посетители, находящиеся в группе Гости, не могут оставлять комментарии к данной публикации.