вход на сайт

Имя пользователя :
Пароль :

Восстановление пароля Регистрация
Бунтарка / Stick It (Джессика Бендинджер, Драма, комедия, спорт, 2006) [DVDRip-AVC, Профессиональный (полное дублирование) + оригинальный (английский) + субтитры (рус,англ)]
Рейтинг:
(голосов: 1)



[img]{THEME}/images/logopost.png[/img]



Бунтарка / Stick It
«Defy and Conquer.»

Год выпуска: 2006
Страна: Германия, США
Производство: Kaltenbach Pictures & Company
Жанр: Драма, комедия, спорт

Режиссёр: Джессика Бендинджер
В ролях: Джефф Бриджес, Мисси Перегрим, Ванесса Ленджис, Никки СуХу, Мэдди Керли, Келлан Латс, Джон Патрик Амедори, Мио Дзакула, Светлана Ефремова, Джон Гриз

Перевод: Профессиональный (полное дублирование) + Оригинал (английский)
Субтитры: Русские, английские, английские для плохослышащих

Описание: Год назад она уже представляла свою страну в мировом турнире по спортивной гимнастике. Но в последний момент она отказывается от — участия в чемпионате, лишая тем самым команду золотой медали. Почему? Да потому что все надоело.

Она решает поставить крест на спорте и пожить «нормальной жизнью подростка» — вламываться в окна домов богатых буржуа, ездить на скейте и тусоваться с сомнительными личностями. Однажды ее ловит полиция и предъявляет ей обвинение в злостном хулиганстве.

Теперь у нее только два пути — либо в тюрьму, либо в закрытую элитную гимнастическую академию. Что практически одно и тоже.



Качество: DVDRip-AVC
Продолжительность: 1:38:52

Контейнер: MKV
Видео кодек: x264
Аудио кодек: AC3
Видео: [email protected] (1.85:1), 25,000 fps, AVC ~2265 kbps, 0,23 bit/pixel
Аудио1: 48 kHz, AC3 5.1 ch, ~448.00 kbps avgDUB
Аудио2: 48 kHz, AC3 5.1 ch, ~448.00 kbps avgENG

премьера (мир): 21 апреля 2006
премьера (РФ): 13 июля 2006, «Парадиз»
MediaInfo ▼General
Complete name : D:ФИЛЬМЫБунтарка(2006) Бунтарка.mkv
Format : Matroska
File size : 2.19 GiB
Duration : 1h 38mn
Overall bit rate : 3 165 Kbps
Movie name : (2006) Бунтарка - релиз подготовил -Джон Коннор- для rutracker.org
Encoded date : UTC 2010-06-25 06:21:35
Writing application : mkvmerge v3.0.0 (Hang up your Hang-Ups) built on Dec 12 2009 15:20:35
Writing library : libebml v0.7.9 + libmatroska v0.8.1

Video
ID : 1
Format : AVC
Format/Info : Advanced Video Codec
Format profile : [email protected]
Format settings, CABAC : Yes
Format settings, ReFrames : 6 frames
Muxing mode : Container [email protected]
Codec ID : V_MPEG4/ISO/AVC
Duration : 1h 38mn
Bit rate : 2 206 Kbps
Nominal bit rate : 2 267 Kbps
Width : 704 pixels
Height : 544 pixels
Display aspect ratio : 1.855
Frame rate : 25.000 fps
Resolution : 24 bits
Colorimetry : 4:2:0
Scan type : Progressive
Bits/(Pixel*Frame) : 0.230
Stream size : 1.52 GiB (70%)
Title : (2006) Бунтарка - релиз подготовил -Джон Коннор- для rutracker.org
Writing library : x264 core 79
Encoding settings : cabac=1 / ref=6 / deblock=1:-2:-1 / analyse=0x3:0x113 / me=umh / subme=9 / psy=1 / psy_rd=1.0:0.0 / mixed_ref=1 / me_range=24 / chroma_me=1 / trellis=2 / 8x8dct=1 / cqm=0 / deadzone=21,11 / chroma_qp_offset=-2 / threads=1 / nr=0 / decimate=1 / mbaff=0 / constrained_intra=0 / bframes=6 / b_pyramid=0 / b_adapt=2 / b_bias=0 / direct=1 / wpredb=1 / wpredp=2 / keyint=250 / keyint_min=25 / scenecut=40 / rc_lookahead=50 / rc=2pass / mbtree=1 / bitrate=2267 / ratetol=1.0 / qcomp=0.60 / qpmin=10 / qpmax=51 / qpstep=4 / cplxblur=20.0 / qblur=0.5 / ip_ratio=1.40 / aq=1:1.00
Language : Russian
Color primaries : BT.601-6 525, BT.1358 525, BT.1700 NTSC, SMPTE 170M
Transfer characteristics : BT.709-5, BT.1361
Matrix coefficients : BT.601-6 525, BT.1358 525, BT.1700 NTSC, SMPTE 170M

Audio #1
ID : 2
Format : AC-3
Format/Info : Audio Coding 3
Codec ID : A_AC3
Duration : 1h 38mn
Bit rate mode : Constant
Bit rate : 448 Kbps
Channel(s) : 6 channels
Channel positions : Front: L C R, Surround: L R, LFE
Sampling rate : 48.0 KHz
Stream size : 317 MiB (14%)
Title : Профессиональный (полное дублирование)
Language : Russian

Audio #2
ID : 3
Format : AC-3
Format/Info : Audio Coding 3
Codec ID : A_AC3
Duration : 1h 38mn
Bit rate mode : Constant
Bit rate : 448 Kbps
Channel(s) : 6 channels
Channel positions : Front: L C R, Surround: L R, LFE
Sampling rate : 48.
62f1076bf79e3e7353d573001708e55cd1ed3bb1Бунтарка / Stick It (Джессика Бендинджер, Драма, комедия, спорт, 2006) [DVDRip-AVC, Профессиональный (полное дублирование) + оригинальный (английский) + субтитры (рус,англ)] Бунтарка / Stick It (Джессика Бендинджер, Драма, комедия, спорт, 2006) [DVDRip-AVC, Профессиональный (полное дублирование) + оригинальный (английский) + субтитры (рус,англ)] " />

Аплоадер: Админ, дата: 30-03-2013, 21:08, торрент скачан: 359 раз

Понравилась раздача? Посмотрите эти:
  • Семь психопатов / Seven Psychopaths (Мартин МакДона, Триллер, комедия, крим ...
  • Четвертый вид / The Fourth Kind (Олатунде Осунсанми, ужасы, фантастика, 200 ...
  • Снова ты / You Again (Энди Фикмен, Мелодрама, комедия, 2010) [BDRip-AVC, Пр ...
  • Хичкок / Hitchcock (Саша Джерваси, Драма, история, биография, 2012) [BDRip- ...
  • Жизнь Пи / Life Of Pi (Энг Ли, Драма, приключения, 2012) [BDRip 720p, Профе ...
  • Бунтарка / Stick It (Джессика Бендинджер / Jessica Bendinger, Драма, Комеди ...
  • Али / Ali (Майкл Манн, драма, биография, спорт, 2001) [BDRip-AVC, Профессио ...
  • Дитя человеческое / Children of Men (Альфонсо Куарон, фантастика, триллер, ...
  • Четыре Рождества / Four Christmases (Сет Гордон / Seth Gordon, драма, мелод ...
  • Персонаж / Stranger Than Fiction (Марк Форстер, Комедия, драма, фантастика, ...
  • Выпускной / Prom (Джо Нуссбаум, драма, мелодрама, комедия, 2011) [BDRip-AVC ...
  • Команда «А» / The A-Team (Джо Карнахан, боевик, триллер, комедия, приключен ...
  • Вальгалла: Сага о викинге / Valhalla Rising (Николас Виндинг Рёфн, боевик, ...
  • Максимальный риск / Maximum Risk (Ринго Лам, боевик, триллер, криминал, при ...
  • Роб Рой / Rob Roy (Майкл Кейтон-Джонс, боевик, драма, мелодрама, 1995) [BDR ...
  • Ларри Краун / Larry Crowne (Том Хэнкс, драма, мелодрама, комедия, 2011) [BD ...
  • Зелёная миля / The Green Mile (Фрэнк Дарабонт , драма, 1999) [BDRip 1080p, ...
  • Суперсооружения: Супертрубопровод / Megastructures: Super Pipeline (Докумен ...
  • Футбольный клуб / Чемпионат Европы 2012 / НТВ+ [Футбол, 08.06.2012, HDTVRip ...
  • Mylene Farmer / Du Temps [2011, Pop, HDTVRip]
  • Mylene Farmer / Bleu Noir [2011, Pop, HDTVRip]
  • Бунтарка / Stick It (Джессика Бендинджер, комедия, спорт, 2006) [DVDRip, д ...
  • Бунтарка / Stick It (Джессика Бендинджер, комедия, драма, спорт, 2006) [DV ...
  • The Dream Team - NBA TV Documentary [Баскетбол,13.06.2012, HDTVRip/720p, MP ...
  • Вечер бокса в Лас-Вегасе (США) / Магомед Абдусаламов - Морис Байарм / Magom ...
  • Информация
    Посетители, находящиеся в группе Гости, не могут оставлять комментарии к данной публикации.