вход на сайт

Имя пользователя :
Пароль :

Восстановление пароля Регистрация
Запретная любовь / The Edge of Love (Джон Мэйбери, Драма, мелодрама, военный, биография, 2008) [BDRip-AVC, Профессиональный (многоголосый закадровый) [R5] + Оригинал (английский) + Sub]
Рейтинг:
(голосов: 1)



[img]{THEME}/images/logopost.png[/img]



Запретная любовь / The Edge of Love
«The only thing more dangerous than war... is love.
Год выпуска: 2008
Страна: Великобритания
Производство: BBC Films, Capitol Films, Prescience, Prescience Film Fund, Rainy Day Films, Sarah Radclyffe Productions Limited, Wales Creative IP Fund
Жанр: Драма, мелодрама, военный, биография

Режиссёр: Джон Мэйбери
В ролях: Кира Найтли, Киллиан Мёрфи, Сиенна Миллер, Мэттью Риз, Лиза Стэнсфилд, Huw Ceredig, Ричард Клиффорд, Ричард Диллэйн, Joel Dommett, Рэйчел Эссекс...

Перевод: Профессиональный (многоголосый закадровый) R5 +Оригинал (английский)
Субтитры: Русские, Английские

Описание: Сложные межличностные отношения четырех людей, имевшие место на самом деле в Англии в 1940-х годах, чуть не привели к трагедии. История двух мужчин и двух женщин, запутавшихся в собственных поступках, остановившихся в тупике, в который их завели ошибки.Дата премьеры (мир): 15 мая 2008

Качество: BDRip-AVC
Продолжительность: 01:50:36 час.

Формат: MKV
Видео кодек: H.264
Аудио кодек: Audio Coding 3
Видео: 1052x568 (1.85:1), 23.976 fps, H.264 ~2 865 kbps avg, 0.200 bit/pixel
Аудио #1: 48 kHz, Audio Coding 3, 6 ch, ~448.00 kbps avg - MVO
Аудио #2: 48 kHz, Audio Coding 3, 6 ch, ~448.00 kbps avg - ENG
MediaInfo ▼Format : Matroska
Format version : Version 2
File size : 2.91 GiB
Duration : 1h 50mn
Overall bit rate : 3 762 Kbps
Encoded date : UTC 2011-07-10 17:24:14
Writing application : mkvmerge v4.6.0 (Still Crazy After All These Years) сборка от Apr 1 2011 21:01:49
Writing library : libebml v1.2.0 + libmatroska v1.1.0

Video
ID : 1
Format : AVC
Format/Info : Advanced Video Codec
Format profile : [email protected]
Format settings, CABAC : Yes
Format settings, ReFrames : 11 frames
Codec ID : V_MPEG4/ISO/AVC
Duration : 1h 50mn
Bit rate : 2 865 Kbps
Width : 1 052 pixels
Height : 568 pixels
Display aspect ratio : 1.85:1
Frame rate : 23.976 fps
Color space : YUV
Chroma subsampling : 4:2:0
Bit depth : 8 bits
Scan type : Progressive
Bits/(Pixel*Frame) : 0.200
Stream size : 2.16 GiB (74%)
Title : The Edge of Love BDRip-AVC Gambit
Writing library : x264 core 115 r1936 7a9e08d
Encoding settings : cabac=1 / ref=11 / deblock=1:-3:-2 / analyse=0x3:0x133 / me=umh / subme=10 / psy=1 / psy_rd=1.10:0.05 / mixed_ref=1 / me_range=48 / chroma_me=1 / trellis=2 / 8x8dct=1 / cqm=0 / deadzone=21,11 / fast_pskip=0 / chroma_qp_offset=-6 / threads=6 / sliced_threads=0 / nr=0 / decimate=1 / interlaced=0 / bluray_compat=0 / constrained_intra=0 / bframes=10 / b_pyramid=2 / b_adapt=2 / b_bias=0 / direct=3 / weightb=1 / open_gop=0 / weightp=2 / keyint=250 / keyint_min=23 / scenecut=40 / intra_refresh=0 / rc=2pass / mbtree=0 / bitrate=2865 / ratetol=1.0 / qcomp=0.65 / qpmin=0 / qpmax=69 / qpstep=4 / cplxblur=20.0 / qblur=0.5 / ip_ratio=1.40 / pb_ratio=1.25 / aq=2:0.90
Language : English
Default : Yes
Forced : No

Audio #1
ID : 2
Format : AC-3
Format/Info : Audio Coding 3
Mode extension : CM (complete main)
Format settings, Endianness : Big
Codec ID : A_AC3
Duration : 1h 50mn
Bit rate mode : Constant
Bit rate : 448 Kbps
Channel(s) : 6 channels
Channel positions : Front: L C R, Side: L R, LFE
Sampling rate : 48.0 KHz
Bit depth : 16 bits
Compression mode : Lossy
Stream size : 355 MiB (12%)
Title : MVO
Language : Russian
Default : Yes
Forced : No

Audio #2
ID : 3
Format : AC-3
Format/Info : Audio Coding 3
Mode extension : CM (complete main)
Format settings, Endianness : Big
Codec ID : A_AC3
Duration : 1h 50mn
Bit rate mode : Constant
Bit rate : 448 Kbps
Channel(s) : 6 channels
Channel positions : Front: L C R, Side: L R, LFE
Sampling rate : 48.0 KHz
Bit depth : 16 bits
Compression mode : Lossy
Stream size : 355 MiB (12%)
Title : Original (Eng)
Language : English
Default : No
Forced : No

Text #1
ID : 4
Format : UTF-8
Codec ID : S_TEXT/UTF8
Codec ID/Info : UTF-8 Plain Text
Title : Rus
Language : Russian
Default : No
Forced : No

Text #2
ID : 5
Format : UTF-8
Codec ID : S_TEXT/UTF8
Codec ID
01b0275b7cf74288a2fc8f17f03ac02686b9e04eЗапретная любовь / The Edge of Love (Джон Мэйбери, Драма, мелодрама, военный, биография, 2008) [BDRip-AVC, Профессиональный (многоголосый закадровый) [R5] + Оригинал (английский) + Sub] Запретная любовь / The Edge of Love (Джон Мэйбери, Драма, мелодрама, военный, биография, 2008) [BDRip-AVC, Профессиональный (многоголосый закадровый) [R5] + Оригинал (английский) + Sub] " />

Аплоадер: Админ, дата: 27-03-2013, 17:58, торрент скачан: 359 раз

Понравилась раздача? Посмотрите эти:
  • За кадром... / In a World...(Лэйк Белл, комедия, 2013) [BDRip-AVC, Професси ...
  • Грязь / Filth (Джон С. Бейрд, криминал, драма, комедия, 2013) [BDRip-AVC, ...
  • Погнали! / Getaway (Кортни Соломон, боевик, криминал, 2013) [BDRip 720p, Пр ...
  • Бэндслэм / Bandslam (Тодд Графф,Комедия, Мелодрама, 2009) [BDRip 1080p, Про ...
  • Ледяной / The Iceman (Ариэль Вромен, драма, криминал, биография, 2013) [BDR ...
  • 42 / 42 (Брайан Хелгеленд, Драма, биография, спорт, 2013) [BDRip 720p, Проф ...
  • Запретная любовь / The Edge of Love (Джон Мэйбери, Драма, мелодрама, военны ...
  • Экипаж / Flight (Роберт Земекис, Драма, 2012) [BDRip-AVC, Профессиональный ...
  • Суррогат / The Sessions (Бен Луин, драма, 2012) [BDRip 720p, Профессиональн ...
  • Цельнометаллическая оболочка / Full Metal Jacket (Стэнли Кубрик, драма, вое ...
  • Мартовские иды / The Ides of March (Джордж Клуни / George Clooney, драма, 2 ...
  • Персонаж / Stranger Than Fiction (Марк Форстер, Комедия, драма, фантастика, ...
  • Фантомы / Shutter (Масаюки Очиай, ужасы, триллер, детектив, 2008) [BDRip-AV ...
  • Больше, чем любовь / A Lot Like Love (Найджел Коул, драма, мелодрама, комед ...
  • Центурион / Centurion (Нил Маршалл / Neil Marshall, Боевик, триллер, драма, ...
  • Экстази / Irvine Welshs Ecstasy (Роб Хейдон, Драма, мелодрама, 2011) [BDRip ...
  • Рыжий пес / Red Dog (Крив Стендерс, драма, комедия, семейный, 2011) [BDRip ...
  • Похищенная / A Lonely Place to Die (Джулиан Джилби, триллер, криминал, прик ...
  • Три метра над уровнем неба / Tres metros sobre el cielo (Фернандо Гонзалез ...
  • Любовь / Love (Уильям Юбэнк, Фантастика, драма, 2011) [BDRip 720p, Професси ...
  • Запретная любовь / The Edge of Love (Джон Мэйбери, драма, 2008) [BDRip, Про ...
  • Запретная любовь / The Edge of Love (Джон Мэйбери / John Maybury, драма, ме ...
  • Нет мужчин - нет проблем / Without Men (Габриела Тальявини / Gabriela Tagli ...
  • Футбольные гладиаторы / Ушедшее время / Awaydays (Пэт Холден, драма, кримин ...
  • Запретная любовь / The Edge of Love ( Джон Мэйбери, Драма, мелодрама, военн ...
  • Информация
    Посетители, находящиеся в группе Гости, не могут оставлять комментарии к данной публикации.