вход на сайт

Имя пользователя :
Пароль :

Восстановление пароля Регистрация
Я буду рядом (Павел Руминов, Драма, 2012) [DVDRip, Не требуется]
Рейтинг:
(голосов: 1)



[img]{THEME}/images/logopost.png[/img]



Я буду рядом
------



Год выпуска: 2012
Страна: Россия, Украина
Производство: Enjoy Movies, Квартал-95, ТПО Рок
Жанр: Драма

Режиссер: Павел Руминов
В ролях: Мария Шалаева, Роман Зенчук, Мария Сёмкина, Иван Волков, Елена Морозова, Алиса Хазанова, Иван Кокорин, Михаил Крылов, Анастасия Захарова, Тихон Корнев

Перевод: Не требуется
Субтитры: Отсутствуют

Описание: Инна — успешная молодая женщина с отличным чувством юмора. Она работает менеджером ресторана, по праву заслужив уважение и любовь коллег и начальства. А еще у нее есть самый важный человек на свете — 6-летний сын Митя, которого Инна воспитывает одна. На зависть окружающим, между матерью и ребенком сложились трогательные, добрые, заботливые отношения. Но неожиданно Инну настигает страшная беда — неизлечимая болезнь. Теперь главное для Инны — найти маленькому Мите новых родителей, иначе ребенок останется одиноким сиротой.



МедиаИнфо ▼Text

Общее
Полное имя : D:о немEl Barco (3 сезон)Новые раздачиalice-with-horseНовый пакНовая папкаКлипыфильмыНовая папкаАзатуНовая папкаПоследний самурайНовая папкаАзаткомедииJa.budu.rjadom.2012.O.DVDRip.avi
Формат : AVI
Формат/Информация : Audio Video Interleave
Размер файла : 1,46 Гбайт
Продолжительность : 1 ч. 35 м.
Общий поток : 2194 Кбит/сек
Название фильма : Ja.budu.rjadom.2012.O.DVDRip.IRONCLUB
Режиссёр : IRONCLUB
Жанр : Drama
Программа кодирования : VirtualDubMod 1.5.10.3 | www.virtualdub-fr.org || (build 2550/release)
Формат оригинала/Имя : Movie
Правообладатель : http://ironclub.tv/

Видео
Идентификатор : 0
Формат : MPEG-4 Visual
Профиль формата : Advanced [email protected]
Параметр BVOP формата : 1
Параметр QPel формата : Нет
Параметр GMC формата : Без точки перехода
Параметр матрицы формата : Выборочная
Идентификатор кодека : XVID
Идентификатор кодека/Подсказка : XviD
Продолжительность : 1 ч. 35 м.
Битрейт : 1737 Кбит/сек
Ширина : 720 пикселей
Высота : 400 пикселей
Соотношение сторон : 16:9
Частота кадров : 25,000 кадров/сек
Цветовое пространство : YUV
Субдискретизация насыщенности : 4:2:0
Битовая глубина : 8 бит
Тип развёртки : Прогрессивная
Метод сжатия : С потерями
Бит/(Пиксели*Кадры) : 0.241
Размер потока : 1,15 Гбайт (79%)
Библиотека кодирования : XviD 1.2.1 (UTC 2008-12-04)

Аудио
Идентификатор : 1
Формат : AC-3
Формат/Информация : Audio Coding 3
Расширение режима : CM (complete main)
Параметр Endianness формата : Big
Идентификатор кодека : 2000
Продолжительность : 1 ч. 35 м.
Вид битрейта : Постоянный
Битрейт : 448 Кбит/сек
Каналы : 6 каналов
Расположение каналов : Front: L C R, Side: L R, LFE
Частота : 48,0 КГц
Битовая глубина : 16 бит
Метод сжатия : С потерями
Размер потока : 305 Мбайт (20%)
Выравнивание : Разделение по промежуткам
Продолжительность промежутка : 40 мс. (1,00 видеокадр)
Время предзагрузки промежутка : 500 мс.
Премьеры ▼

Премьера (мир): 16 октября 2012
сборы в США: -


Качество: DVDRip
Продолжительность: 01:35:02

Формат: AVI
Видео кодек: XviD
Аудио кодек: AC3
Видео: 720x400 (1.80:1), 25 fps, XviD build 50 ~1736 kbps avg, 0.24 bit/pixel
Аудио: 48 kHz, AC3 Dolby Digital, 3/2 (L,C,R,l,r) + LFE ch, ~448 kbps

Релиз группы:





881f9018e6ce58473a04a55e191bbdd932239c7dЯ буду рядом (Павел Руминов, Драма, 2012) [DVDRip, Не требуется] Я буду рядом (Павел Руминов, Драма, 2012) [DVDRip, Не требуется] " />

Аплоадер: Админ, дата: 20-04-2013, 02:13, торрент скачан: 359 раз

Понравилась раздача? Посмотрите эти:
  • Бойфренд из будущего / About Time (Ричард Кёртис, Фантастика, драма, комеди ...
  • Одноклассники 2 / Grown Ups 2 (Деннис Дуган, Комедия, 2013) [BDRip, Професс ...
  • Околофутбола (Антон Борматов, драма, криминал, 2013) [DVDRip, Не требуется] ...
  • Околофутбола (Антон Борматов, драма, криминал, 2013) [DVDRip, Не требуется] ...
  • Я буду рядом (Павел Руминов, Драма, 2012) [DVDRip, Не требуется]
  • Даю год / I Give It a Year (Дэн Мазер, Мелодрама, комедия, 2013) [DVDRip, Д ...
  • Марсианская одиссея / Stranded (Мария Лидон, Фантастика, драма, 2001) [DVDR ...
  • Фортуна Вегаса / Lay the Favorite (Стивен Фрирз, Комедия, 2012) [HDRip, Дуб ...
  • Глушь / Resurrection County (Матт Зеттел, Ужасы,триллер, 2008) [DVDRip, Про ...
  • Жил-был тигр / Ek Tha Tiger (Кабир Кхан, боевик, триллер , 2012) [ HDRip, ...
  • Легенда о МорДу / The Legend of MorDu (Брайан Ларсен, Короткометражный, ска ...
  • Отбой / Taps (Харольд Беккер, Драма, 1981) [DVDRip, Профессиональный (много ...
  • Путешествие на дно моря / Voyage to the Bottom of the Sea (Ирвин Аллен / I ...
  • Кажется, я люблю свою жену / I Think I Love My Wife (Крис Рок, Драма, мелод ...
  • Я тоже хочу (Алексей Балабанов, драма, криминал, 2012) [DVDRip, Не требуетс ...
  • Вечерний Ургант // Сезон 2. Выпуск 56 (ТВ-шоу, 11.12.2012) [SATRip, Не треб ...
  • Любовь по расписанию / Поезд (Сергей Мезенцев, мелодрама, 2012) [HDTVRip, Н ...
  • Вечерний Ургант // Сезон 2. Выпуск 63 (ТВ-шоу, 20.12.2012) [SATRip, Не треб ...
  • Вечерний Ургант // Сезон 2. Выпуск 68 (ТВ-шоу, 27.12.2012) [SATRip, Не треб ...
  • Покорить высоту / Take It to the Limit (Сэм Кит / Sam Kieth, семейный, 2000 ...
  • Боец из трущоб / Gutter King (Кейт Алан Моррис / Keith Alan Morris, боевик, ...
  • Кошмар / Nightmare / Qing Yan (Херман Яу, ужасы, триллер, 2012) [DVDRip, Лю ...
  • Глаз шторма / The Eye of the Storm (Фред Скеписи, Драма, 2011) [HDRip, Проф ...
  • Человек из банки (Иван Кульнев, Комедия, 2012) [DVDRip, Не требуется]
  • Сдохни, Джон Такер / John Tucker Must Die (Бетти Томас, мелодрама, комедия, ...
  • Информация
    Посетители, находящиеся в группе Гости, не могут оставлять комментарии к данной публикации.