вход на сайт

Имя пользователя :
Пароль :

Восстановление пароля Регистрация
25-й час / 25th Hour (Спайк Ли, Драма, криминал, 2002) [HDTVRip-AVC, Профессиональный (многоголосый, закадровый) [1+1] + Оригинал (английский) + Sub]
Рейтинг:
(голосов: 1)



[img]{THEME}/images/logopost.png[/img]



25-й час / 25th Hour
«This life was so close to never happening»

Год выпуска: 2002
Страна: США
Производство: 25th Hour Productions, 40 Acres & A Mule Filmworks, Gamut Films
Жанр: Драма, криминал

Режиссёр: Спайк Ли
В ролях: Эдвард Нортон, Филип Сеймур Хоффман, Бэрри Пеппер, Розарио Доусон, Анна Пакуин, Брайан Кокс, Тони Сирагуса, Леван Учанейшвили, Тони Девон, Миша Кузнецов, Исайя Уитлок мл.

Перевод: Профессиональный (многоголосый, закадровый) [1+1] + Оригинал (английский)
Субтитры: Русские

Описание:
В фильме описывается последний день свободной жизни молодого бруклинца Монти Брогана (Эдвард Нортон), осужденного на семь лет тюрьмы за торговлю наркотиками. Оставшиеся 24 часа он проводит в компании своих родных, друзей, деловых партнеров и любимой девушки Натурель.

Монти, мечтавший в свое время стать пожарным, но в итоге ступивший на роковую стезю наркодилера, прощается с прошлым и пытается переосмыслить свою жизнь…

Автор рипа:




Дата премьеры (мир): 16 декабря 2002

Качество: HDTVRip-AVC
Продолжительность: 02:14:43 час.

Формат: MKV
Видео кодек: x264
Аудио кодек: AC3
Видео: 1024x576 (16:9), 23.976 fps, x264 ~3 093 kbps avg, 0.219 bit/pixel
Аудио #1: 48 kHz, AС3, 6 ch, ~384.00 kbps avg | Профессиональный (многоголосый, закадровый) [1+1]
Аудио #2: 48 kHz, AС3, 6 ch, ~384.00 kbps avg | Оригинал (английский)

MediaInfo ▼Полное имя : 25-j.chas.2002.x264.HDTVRip.(AVC).0ptimus.mkv
Формат : Matroska
Версия формата : Version 4 / Version 2
Размер файла : 3,63 Гбайт
Продолжительность : 2 ч. 14 м.
Общий поток : 3862 Кбит/сек
Название фильма : 25-й час | 25th Hour [2002] -=HDTVRip (AVC) by 0ptimus=-
Дата кодирования : UTC 2013-04-06 08:05:22
Программа кодирования : mkvmerge v6.1.0 (Old Devil) built on Mar 2 2013 14:32:37
Библиотека кодирования : libebml v1.3.0 + libmatroska v1.4.0

Видео
Идентификатор : 1
Формат : AVC
Формат/Информация : Advanced Video Codec
Профиль формата : [email protected]
Параметр CABAC формата : Да
Параметр ReFrames формата : 10 кадров
Идентификатор кодека : V_MPEG4/ISO/AVC
Продолжительность : 2 ч. 14 м.
Битрейт : 3093 Кбит/сек
Ширина : 1024 пикселя
Высота : 576 пикселей
Соотношение сторон : 16:9
Частота кадров : 23,976 кадра/сек
Цветовое пространство : YUV
Субдискретизация насыщенности : 4:2:0
Битовая глубина : 8 бит
Тип развёртки : Прогрессивная
Бит/(Пиксели*Кадры) : 0.219
Размер потока : 2,84 Гбайт (78%)
Заголовок : Rip by 0ptimus
Библиотека кодирования : x264 core 130 r2273 b3065e6
Настройки программы : cabac=1 / ref=10 / deblock=1:-3:-3 / analyse=0x3:0x113 / me=umh / subme=11 / psy=1 / psy_rd=1.00:0.20 / mixed_ref=1 / me_range=32 / chroma_me=1 / trellis=2 / 8x8dct=1 / cqm=0 / deadzone=21,11 / fast_pskip=0 / chroma_qp_offset=-3 / threads=3 / lookahead_threads=1 / sliced_threads=0 / nr=0 / decimate=0 / interlaced=0 / bluray_compat=0 / constrained_intra=0 / bframes=8 / b_pyramid=2 / b_adapt=2 / b_bias=0 / direct=3 / weightb=1 / open_gop=0 / weightp=2 / keyint=240 / keyint_min=23 / scenecut=40 / intra_refresh=0 / rc_lookahead=40 / rc=2pass / mbtree=0 / bitrate=3093 / ratetol=1.0 / qcomp=0.60 / qpmin=0 / qpmax=69 / qpstep=4 / cplxblur=20.0 / qblur=0.5 / vbv_maxrate=50000 / vbv_bufsize=50000 / nal_hrd=none / ip_ratio=1.40 / pb_ratio=1.30 / aq=1:1.00
Язык : English

Аудио #1
Идентификатор : 2
Формат : AC-3
Формат/Информация : Audio Coding 3
Расширение режима : CM (complete main)
Идентификатор кодека : A_AC3
Продолжительность : 2 ч. 14 м.
Вид битрейта : Постоянный
Битрейт : 384 Кбит/сек
Каналы : 6 каналов
Расположение каналов : Front: L C R, Side: L R, LFE
Частота : 48,0 КГц
Битовая глубина : 16 бит
Метод сжатия : С потерями
Размер потока : 370 Мбайт (10%)
Заголовок : Многоголосый закадровый [1+1]
Язык : Russian

Аудио #2
Идентификатор : 3
Формат : AC-3
Формат/Информация : Audio Coding 3
Расширение режима : CM (complete main)
Идентификатор кодека : A_AC3
Продолжительность : 2 ч
ad028d41e59fb172e941ec3469208faf9507eb9e25-й час / 25th Hour (Спайк Ли, Драма, криминал, 2002) [HDTVRip-AVC, Профессиональный (многоголосый, закадровый) [1+1] + Оригинал (английский) + Sub] 25-й час / 25th Hour (Спайк Ли, Драма, криминал, 2002) [HDTVRip-AVC, Профессиональный (многоголосый, закадровый) [1+1] + Оригинал (английский) + Sub] " />

Аплоадер: Админ, дата: 18-04-2013, 18:34, торрент скачан: 359 раз

Понравилась раздача? Посмотрите эти:
  • 25-й час / 25th Hour (Спайк Ли, драма, криминал, 2002) [HDTVRip, Профессион ...
  • Ночь страха 2: Свежая кровь / Fright Night 2: New Blood (Эдуардо Родригез, ...
  • Ночь страха 2: Свежая кровь / Fright Night 2: New Blood (Эдуардо Родригез, ...
  • Погнали! / Getaway (Кортни Соломон, боевик, криминал, 2013) [BDRip 1080p, П ...
  • Погнали! / Getaway (Кортни Соломон, боевик, криминал, 2013) [BDRip-AVC, Про ...
  • Главный бой Мухаммеда Али / Muhammad Alis Greatest Fight (Стивен Фрирз, дра ...
  • Филадельфия / Philadelphia (Джонатан Демме, Драма, 1993) [BDRip-AVC, Профес ...
  • Летучий отряд Скотланд-Ярда / The Sweeney (Ник Лав, Боевик, драма, криминал ...
  • Снайпер / The Sniper (Луис Ллоса, Боевик,триллер,драма, 1992) [HDTVRip-AVC, ...
  • Порочные игры / Stoker (Пак Чхан Ук, Триллер, драма, детектив, 2013) [BDRip ...
  • Порочные игры / Stoker (Пак Чхан Ук, Триллер, драма, детектив, 2013) [BDRip ...
  • Голливудский мусор / Garbage (Филипп Волкен, драма, комедия, 2013) [HDTVRip ...
  • Рикошет / Ricochet (Ник Гомез, драма, детектив, 2011) [BDRip-AVC, Профессио ...
  • Оставайся Голодным / Stay Hungry (Боб Рейфелсон, драма, комедия, 1976) [HDT ...
  • АББА: фильм / ABBA: The Movie (документальный, драма, музыка, 1977) [BDRip- ...
  • Двое: Я и моя тень / It Takes Two (Энди Теннант, Мелодрама, комедия, семейн ...
  • Пока ее не было / While She Was Out (Сьюзэн Монтфорд, Триллер, криминал, др ...
  • Суррогат / The Sessions (Бен Луин, Драма, 2012) [BDRip-AVC, Профессиональны ...
  • Не умирай в одиночку / Never Die Alone (Эрнест Р. Дикерсон, боевик, триллер ...
  • 25-й Час / 25th Hour (Эдвард Нортон,Спайк Ли,драма, криминал,2002) [HDTVRip ...
  • Погоня / The Chase (Адам Рифкин, Боевик, триллер, мелодрама, комедия, крими ...
  • Эд Вуд / Ed Wood (Тим Бёртон, драма, комедия, биография, 1994) [BDRip-AVC, ...
  • Лучшие из лучших 2 / Best of the Best 2 (Роберт Рэдлер, Боевик, триллер, др ...
  • 25-й Час / 25th Hour (Эдвард Нортон,Спайк Ли,драма, криминал,2002) [HDTVRip ...
  • 25-й час / 25th Hour (Спайк Ли, драма/криминал, 2002) [BDRip, Профессиональ ...
  • Информация
    Посетители, находящиеся в группе Гости, не могут оставлять комментарии к данной публикации.