вход на сайт

Имя пользователя :
Пароль :

Восстановление пароля Регистрация
Терминал / The Terminal (Стивен Спилберг, Драма, комедия, 2004) [HDTVRip, Профессиональный (двухголосый, закадровый) [Tycoon Studio]]
Рейтинг:
(голосов: 1)



[img]{THEME}/images/logopost.png[/img]



Терминал / The Terminal
«Жизнь - это ожидание.»


Год выпуска: 2004
Страна: США
Производство: DreamWorks SKG, Amblin Entertainment, Parkes/MacDonald Productions
Жанр: Драма, комедия

Режиссёр: Стивен Спилберг
В ролях: Том Хэнкс, Кэтрин Зета-Джонс, Стэнли Туччи, Чи МакБрайд, Диего Луна, Бэрри Шебака Хенли, Кумар Паллана, Зои Салдана, Эдди Джонс, Джуд Чикколелла

Перевод: Профессиональный (двухголосый, закадровый) [Tycoon Studio]
Субтитры: Отсутствуют

Описание: Фильм рассказывает историю Виктора Наворски, отправившегося в Нью-Йорк из Восточной Европы. Пока Виктор летел в самолете, на его родине произошел государственный переворот. Оказавшись в международном аэропорту имени Джона Кеннеди с паспортом ниоткуда, он не имеет права въехать в Соединенные Штаты и должен коротать свои дни и ночи в гостинице аэропорта, пока война в его родной стране не закончится.

Тянутся недели и месяцы, и Виктор обнаруживает, что небольшой мирок терминала может быть наполнен абсурдом, щедростью, амбициями, развлечениями, желанием сохранить свой статус, интуитивной прозорливостью и даже любовью к очаровательной стюардессе Амелии. Виктору удается завоевать симпатии всех, кроме одного человека — чиновника аэропорта Фрэнка Диксона, который считает его бюрократической ошибкой, проблемой, которую он не может контролировать, но от которой жаждет избавиться.



Релиз от:
Автор рипа: VremeniNet

Качество: HDTVRip
Продолжительность: 02:03:34 час.

Формат: AVI
Видео кодек: Xvid
Аудио кодек: MP3
Видео: 576x320 (1.80:1), 25 fps, XviD build 65 ~702 kbps avg, 0.15 bit/pixel
Аудио: 48 kHz, MPEG Layer 3, 2 ch, ~128.00 kbps avg

Дата премьеры (мир): 9 июня 2004
Дата премьеры (РФ): 14 октября 2004, «UIP»

"MediaInfo" ▼Общее
Полное имя : H:TerminalTerminal.2004.HDTVRip.DVO.[All.Films].avi
Формат : AVI
Формат/Информация : Audio Video Interleave
Размер файла : 740 Мбайт
Продолжительность : 2 ч. 3 м.
Общий поток : 837 Кбит/сек
Название фильма : Terminal.2004.HDTVRip.DVO.[All.Films]
Режиссёр : VremeniNet
Программа кодирования : VirtualDubMod 1.5.10.3 | www.virtualdub-fr.org || (build 2550/release)
Правообладатель : [rutracker.org]

Видео
Идентификатор : 0
Формат : MPEG-4 Visual
Профиль формата : Advanced [email protected]
Параметр BVOP формата : 1
Параметр QPel формата : Нет
Параметр GMC формата : Без точки перехода
Параметр матрицы формата : Выборочная
Идентификатор кодека : XVID
Идентификатор кодека/Подсказка : XviD
Продолжительность : 2 ч. 3 м.
Битрейт : 700 Кбит/сек
Ширина : 576 пикселей
Высота : 320 пикселей
Соотношение сторон : 16:9
Частота кадров : 25,000 кадров/сек
Цветовое пространство : YUV
Субдискретизация насыщенности : 4:2:0
Битовая глубина : 8 бит
Тип развёртки : Прогрессивная
Метод сжатия : С потерями
Бит/(Пиксели*Кадры) : 0.152
Размер потока : 619 Мбайт (84%)
Библиотека кодирования : XviD 65

Аудио
Идентификатор : 1
Формат : MPEG Audio
Версия формата : Version 1
Профиль формата : Layer 3
Идентификатор кодека : 55
Идентификатор кодека/Подсказка : MP3
Продолжительность : 2 ч. 3 м.
Вид битрейта : Постоянный
Битрейт : 128 Кбит/сек
Каналы : 2 канала
Частота : 48,0 КГц
Метод сжатия : С потерями
Размер потока : 113 Мбайт (15%)
Выравнивание : Соединение по промежуткам
Продолжительность промежутка : 40 мс. (1,00 видеокадр)
Время предзагрузки промежутка : 504 мс.





19ae34aef689bbf6d130a7abf29da462482bc5c1Терминал / The Terminal (Стивен Спилберг, Драма, комедия, 2004) [HDTVRip, Профессиональный (двухголосый, закадровый) [Tycoon Studio]] Терминал / The Terminal (Стивен Спилберг, Драма, комедия, 2004) [HDTVRip, Профессиональный (двухголосый, закадровый) [Tycoon Studio]] " />

Аплоадер: Админ, дата: 2-05-2013, 19:59, торрент скачан: 359 раз

Понравилась раздача? Посмотрите эти:
  • Миллионы Брюстера / Brewsters Millions (Уолтер Хилл, Комедия, 1985) [HDTVRi ...
  • Грязная кампания за честные выборы / The Campaign (Джей Роуч , Комедия,201 ...
  • Список Шиндлера / Schindlers List (Стивен Спилберг, Драма, военный, биограф ...
  • Терминал / The Terminal (Стивен Спилберг, Том Хэнкс / комедия, мелодрама, д ...
  • Терминал / The Terminal (Стивен Спилберг, комедия, мелодрама, драма, 2004) ...
  • Двенадцать бедствий на Рождество / The 12 Disasters of Christmas (Стивен Р. ...
  • Терминал / The Terminal [HD 1280x704]
  • Бог любви / God of Love (Люк Мэзени, Короткометражка, фэнтези, комедия, мел ...
  • Любовь по расписанию / Поезд (Сергей Мезенцев, мелодрама, 2012) [HDTVRip, Н ...
  • Заместитель / Il supplente (Андреа Жублин, Короткометражка, комедия, 2007) ...
  • Светлячок. Воссоединение Коричневых плащей к 10 годовщине / Firefly 10th An ...
  • А что насчет тебя? / How About You (Энтони Бирн, Драма, комедия, 2007) [DVD ...
  • Брат якудзы / Brother (Такеши Китано, триллер, драма, криминал, 2000) [HDRi ...
  • Терминал / The Terminal (Стивен Спилберг, Том Хэнкс / комедия, мелодрама, д ...
  • Терминал / The Terminal (Стивен Спилберг, комедия, мелодрама, драма, 2004) ...
  • Детский душ / Baby Shower (Pablo Illanes, Ужасы, 2011) [DVDRip, Любительски ...
  • Терминал / The Terminal (Стивен Спилберг / Steven Spielberg, драма, мелодра ...
  • Терминал / The Terminal (Стивен Спилберг, комедия, мелодрама, 2004) [DVDRip ...
  • Терминал / The Terminal (Стивен Спилберг, комедия, мелодрама, драма, 2004) ...
  • Музыка внутри / Music Within (Стивен Савалич, Драма, мелодрама, комедия, во ...
  • Информация
    Посетители, находящиеся в группе Гости, не могут оставлять комментарии к данной публикации.