вход на сайт

Имя пользователя :
Пароль :

Восстановление пароля Регистрация
Список Шиндлера / Schindlers List (Стивен Спилберг, Драма, военный, биография, история, 1993) [HDTVRip, Дубляж]
Рейтинг:
(голосов: 1)



[img]{THEME}/images/logopost.png[/img]



Список Шиндлера / Schindlers List
«Этот список - жизнь.»

Год выпуска: 1993
Страна: США
Производство: Amblin Entertainment, Universal Pictures
Жанр: Драма, военный, биография, история

Режиссёр: Стивен Спилберг
В ролях: Лиам Нисон, Бен Кингсли, Рэйф Файнс, Кэролайн Гудолл, Эмбет Дэвидц, Джонатан Сагалл, Малгоша Гебель, Шмуэль Леви, Марк Иванир, Беатриче Макола

Перевод: Дубляж
Субтитры: Отсутствуют

Описание:
Лента рассказывает реальную историю загадочного Оскара Шиндлера, члена нацистской партии, преуспевающего фабриканта, спасшего во время Второй мировой войны более тысячи ста евреев. Это триумф одного человека, не похожего на других, и драма тех, кто, благодаря ему, выжил в ужасный период человеческой истории.

Автор рипа:
VremeniNet



Дата премьеры (мир): 30 ноября 1993
Дата премьеры (РФ): 21 мая 1994, «Ист-Вест»

Качество: HDTVRip
Продолжительность: 03:15:12 час.

Формат: AVI
Видео кодек: Xvid
Аудио кодек: AC3
Видео: 704x384 (1.83:1), 25 fps, XviD build 65 ~1463 kbps avg, 0.22 bit/pixel
Аудио: 48 kHz, AC3 Dolby Digital, 2/0 (L,R) ch, ~192 kbps

"MediaInfo" ▼Общее
Полное имя : H:Shindlers.listShindlers.list.1993.All.Films.avi
Формат : AVI
Формат/Информация : Audio Video Interleave
Профиль формата : OpenDML
Размер файла : 2,18 Гбайт
Продолжительность : 3 ч. 7 м.
Общий поток : 1668 Кбит/сек
Название фильма : Shindlers.list.1993.All.Films
Режиссёр : VremeniNet
Программа кодирования : VirtualDubModRus 1.5.10.2 (build 2542/release)
Правообладатель : [rutracker.org]

Видео
Идентификатор : 0
Формат : MPEG-4 Visual
Профиль формата : Advanced [email protected]
Параметр BVOP формата : 1
Параметр QPel формата : Нет
Параметр GMC формата : Без точки перехода
Параметр матрицы формата : Выборочная
Идентификатор кодека : XVID
Идентификатор кодека/Подсказка : XviD
Продолжительность : 3 ч. 7 м.
Битрейт : 1463 Кбит/сек
Ширина : 704 пикселя
Высота : 384 пикселя
Соотношение сторон : 1,85:1
Частота кадров : 25,000 кадров/сек
Цветовое пространство : YUV
Субдискретизация насыщенности : 4:2:0
Битовая глубина : 8 бит
Тип развёртки : Прогрессивная
Метод сжатия : С потерями
Бит/(Пиксели*Кадры) : 0.217
Размер потока : 1,91 Гбайт (88%)
Библиотека кодирования : XviD 65

Аудио
Идентификатор : 1
Формат : AC-3
Формат/Информация : Audio Coding 3
Расширение режима : CM (complete main)
Параметр Endianness формата : Big
Идентификатор кодека : 2000
Продолжительность : 3 ч. 7 м.
Вид битрейта : Постоянный
Битрейт : 192 Кбит/сек
Каналы : 2 канала
Расположение каналов : Front: L R
Частота : 48,0 КГц
Битовая глубина : 16 бит
Метод сжатия : С потерями
Размер потока : 257 Мбайт (12%)
Выравнивание : Разделение по промежуткам
Продолжительность промежутка : 40 мс. (1,00 видеокадр)
Время предзагрузки промежутка : 500 мс.





411d71c1901dc4324941a9b7b915235f008995e9Список Шиндлера / Schindlers List (Стивен Спилберг, Драма, военный, биография, история, 1993) [HDTVRip, Дубляж] Список Шиндлера / Schindlers List (Стивен Спилберг, Драма, военный, биография, история, 1993) [HDTVRip, Дубляж] " />

Аплоадер: Админ, дата: 29-04-2013, 21:57, торрент скачан: 359 раз

Понравилась раздача? Посмотрите эти:
  • [iPhone, iPod touch, iPad] Список Шиндлера / Schindlers List (Стивен Спилбе ...
  • Список Шиндлера / Schindlers List (Стивен Спилберг, Драма, военный, био ...
  • Список Шиндлера / Schindlers List (Стивен Спилберг, Драма, военный, биограф ...
  • Список Шиндлера / Schindlers List (Стивен Спилберг, драма, военный, биограф ...
  • Линкольн / Lincoln (Стивен Спилберг, Драма, военный, биография, история, 20 ...
  • Линкольн / Lincoln (Стивен Спилберг, Драма, военный, биография, история, 20 ...
  • Линкольн / Lincoln (Стивен Спилберг, Драма, военный, биография, история, 20 ...
  • Линкольн / Lincoln (Стивен Спилберг, драма, военный, биография, история, 20 ...
  • Список Шиндлера / Schindlers List (Стивен Спилберг, Драма, военный, биограф ...
  • Список Шиндлера / Schindlers List (Стивен Спилберг, Драма, военный, биограф ...
  • Список Шиндлера / Schindlers List (Стивен Спилберг, драма, военный, биограф ...
  • Терминал / The Terminal (Стивен Спилберг, Драма, комедия, 2004) [HDTVRip, П ...
  • Список Шиндлера / Schindlers List (Стивен Спилберг, Драма, военный, биограф ...
  • Список Шиндлера / Schindlers List (Стивен Спилберг, Драма, военный, биограф ...
  • Линкольн / Lincoln (Стивен Спилберг, драма, военный, биография, история, 20 ...
  • Список Шиндлера / Shindlers List (Стивен Спилберг, Драма, Военный, Биографи ...
  • Список Шиндлера / Schindlers List (Стивен Спилберг / Steven Spielberg,драма ...
  • Список Шиндлера / Shindlers List (Стивен Спилберг, 1993, Драма, Военный, Би ...
  • Список Шиндлера / Shindlers List (Стивен Спилберг / Steven Spielberg, Драма ...
  • Список Шиндлера / Shindlers List (Стивен Спилберг, Драма 1993) [HDTVRip, Пр ...
  • Список Шиндлера / Schindlers List (Стивен Спилберг, Драма, 1993) [HDTV 1080 ...
  • Приключения Тинтина: Тайна Единорога / The Adventures of Tintin (Стивен Спи ...
  • Гениальный папа / Father of Invention (Трент Купер, Драма, комедия, 2010) [ ...
  • Музыка внутри / Music Within (Стивен Савалич, Драма, мелодрама, комедия, во ...
  • Сдохни, Джон Такер / John Tucker Must Die (Бетти Томас, мелодрама, комедия, ...
  • Информация
    Посетители, находящиеся в группе Гости, не могут оставлять комментарии к данной публикации.