вход на сайт

Имя пользователя :
Пароль :

Восстановление пароля Регистрация
Линкольн / Lincoln (Стивен Спилберг, драма, военный, биография, история, 2012) [BDRip-AVC, Профессиональный (полное дублирование) + Оригинал + SUB]
Рейтинг:
(голосов: 1)



[img]{THEME}/images/logopost.png[/img]



Линкольн / Lincoln
-

Год выпуска: 2012
Страна: США
Производство: 20th Century Fox Film Corporation, Amblin Entertainment, DreamWorks SKG, Dune Entertainment, Participant Media, Reliance Entertainment, The Kennedy/Marshall Company
Жанр: драма, военный, биография, история

Режиссёр: Стивен Спилберг
В ролях: Дэниэл Дэй-Льюис, Салли Филд, Дэвид Стрэтэйрн, Джозеф Гордон-Левитт, Джеймс Спэйдер, Хэл Холбрук, Томми Ли Джонс, Джон Хоукс, Джеки Эрл Хейли, Брюс МакГилл

Перевод: Профессиональный (полное дублирование) + Оригинал (английский)
Субтитры: Английские, русские (полные + форс.)

Описание: Биографическая лента об Аврааме Линкольне, шестнадцатом президенте США, который внес неоценимый вклад в победу северян во времена гражданской войны.



Качество: BDRip-AVC => Сэмпл | исх. Линкольн / Lincoln (2012) Blu-ray EUR 1080p AVC DTS 5.1
Продолжительность: 02:29:57 час.

Формат: MKV
Видео кодек: H.264
Аудио кодек:AC3
Видео: 1056x440 (2,40:1), 23,976 fps, H.264 ~1 888 kbps avg, 0.169bit/pixel
Аудио 1: 48 kHz, AC3, 3/2 (L,C,R,l,r) + LFE ch, ~448.00 kbps avg | Профессиональный (полное дублирование)
Аудио 2: 48 kHz, AC3, 3/2 (L,C,R,l,r) + LFE ch, ~448.00 kbps avg | Оригинал (английский)

Премьера (мир) - 8 октября 2012
Премьера (РФ) - 24 января 2013, «Двадцатый Век Фокс СНГ»

MediaInfo ▼Общее
Уникальный идентификатор : 248457362820246753244792289161982488228 (0xBAEB25C24A918D91BFBEC613414BAEA4)
Полное имя : Linkoln.2012.D.BDRip.x264.potroks.mkv
Формат : Matroska
Версия формата : Version 4 / Version 2
Размер файла : 2,92 Гбайт
Продолжительность : 2 ч. 29 м.
Общий поток : 2786 Кбит/сек
Название фильма : -=POTROKS=-
Дата кодирования : UTC 2013-05-14 09:22:13
Программа кодирования : mkvmerge v5.9.0 (On The Loose) built on Dec 15 2012 16:39:58
Библиотека кодирования : libebml v1.3.0 + libmatroska v1.4.0

Видео
Идентификатор : 1
Формат : AVC
Формат/Информация : Advanced Video Codec
Профиль формата : [email protected]
Параметр CABAC формата : Да
Параметр ReFrames формата : 11 кадров
Идентификатор кодека : V_MPEG4/ISO/AVC
Продолжительность : 2 ч. 29 м.
Битрейт : 1888 Кбит/сек
Ширина : 1056 пикселей
Высота : 440 пикселей
Соотношение сторон : 2,40:1
Режим частоты кадров : Постоянный
Частота кадров : 23,976 кадра/сек
Цветовое пространство : YUV
Субдискретизация насыщенности : 4:2:0
Битовая глубина : 8 бит
Тип развёртки : Прогрессивная
Бит/(Пиксели*Кадры) : 0.169
Размер потока : 1,92 Гбайт (66%)
Заголовок : Lincoln
Библиотека кодирования : x264 core 128 r2216M 198a7ea
Настройки программы : cabac=1 / ref=12 / deblock=1:-3:-3 / analyse=0x3:0x133 / me=umh / subme=11 / psy=1 / psy_rd=0.98:0.00 / mixed_ref=0 / me_range=32 / chroma_me=1 / trellis=2 / 8x8dct=1 / cqm=0 / deadzone=21,11 / fast_pskip=0 / chroma_qp_offset=-2 / threads=4 / lookahead_threads=1 / sliced_threads=0 / nr=0 / decimate=1 / interlaced=0 / bluray_compat=0 / constrained_intra=0 / bframes=14 / b_pyramid=1 / b_adapt=2 / b_bias=0 / direct=3 / weightb=1 / open_gop=0 / weightp=2 / keyint=240 / keyint_min=23 / scenecut=40 / intra_refresh=0 / rc_lookahead=200 / rc=2pass / mbtree=1 / bitrate=1888 / ratetol=1.0 / qcomp=0.70 / qpmin=0 / qpmax=69 / qpstep=4 / cplxblur=20.0 / qblur=0.5 / vbv_maxrate=25000 / vbv_bufsize=32500 / nal_hrd=none / ip_ratio=1.35 / aq=1:0.85
Язык : English
Default : Да
Forced : Нет

Аудио #1
Идентификатор : 2
Формат : AC-3
Формат/Информация : Audio Coding 3
Расширение режима : CM (complete main)
Параметр Endianness формата : Big
Идентификатор кодека : A_AC3
Продолжительность : 2 ч. 29 м.
Вид битрейта : Постоянный
Битрейт : 448 Кбит/сек
Каналы : 6 каналов
Расположение каналов : Front: L C R, Side: L R, LFE
Частота : 48,0 КГц
Битовая глубина : 16 бит
Метод сжатия : С потерями
Размер потока : 480 Мбайт (16%)
Заголовок : Dub | DD 5.1 @ 448 kbps - Blu-Ray EUR
Язык : Russian
Default : Да
Forced : Да

Аудио #2
Идентификатор : 3
Формат : AC-3
Формат/Информация : Audio Coding 3
Расширение
4e62a6d784eb7010a83408ee0bb57fa40128c37fЛинкольн / Lincoln (Стивен Спилберг, драма, военный, биография, история, 2012) [BDRip-AVC, Профессиональный (полное дублирование) + Оригинал + SUB] Линкольн / Lincoln (Стивен Спилберг, драма, военный, биография, история, 2012) [BDRip-AVC, Профессиональный (полное дублирование) + Оригинал + SUB] " />

Аплоадер: Админ, дата: 18-05-2013, 16:56, торрент скачан: 359 раз

Понравилась раздача? Посмотрите эти:
  • Линкольн / Lincoln (Стивен Спилберг, Драма, военный, биография, история, 20 ...
  • Линкольн / Lincoln (Стивен Спилберг, Драма, военный, биография, история, 20 ...
  • Линкольн / Lincoln (Стивен Спилберг, Драма, военный, биография, история, 20 ...
  • Линкольн / Lincoln (Стивен Спилберг, Драма, военный, биография, история, 20 ...
  • Линкольн / Lincoln (Стивен Спилберг, Драма, военный, биография, история, 20 ...
  • Линкольн / Lincoln (Стивен Спилберг, драма, военный, биография, история, 20 ...
  • Линкольн / Lincoln (Стивен Спилберг, Драма, военный, биография, история, 20 ...
  • Линкольн / Lincoln (Стивен Спилберг, Драма, военный, биография, история, 20 ...
  • Линкольн / Lincoln (Стивен Спилберг, Драма, военный, биография, история, 20 ...
  • Линкольн / Lincoln (Стивен Спилберг, Драма, военный, биография, история, 20 ...
  • Линкольн / Lincoln (Стивен Спилберг, драма, военный, биография, история, 20 ...
  • [3D] Президент Линкольн: Охотник на вампиров / Abraham Lincoln: Vampire Hun ...
  • Линкольн / Lincoln (Стивен Спилберг, драма, военный, биография, история, 20 ...
  • Линкольн / Lincoln (Стивен Спилберг, драма, военный, биография, история, 20 ...
  • Линкольн / Lincoln (Стивен Спилберг, драма, военный, биография, история, 20 ...
  • Линкольн / Lincoln (Стивен Спилберг, Драма, военный, биография, история, 20 ...
  • Линкольн / Lincoln (Стивен Спилберг, драма, военный, биография, история, 20 ...
  • Линкольн / Lincoln (Стивен Спилберг, драма, военный, биография, история, 20 ...
  • Линкольн / Lincoln (Стивен Спилберг, драма, военный, биография, история, 20 ...
  • [Трейлер] Линкольн / Lincoln (Стивен Спилберг, драма, военный, биография, и ...
  • Информация
    Посетители, находящиеся в группе Гости, не могут оставлять комментарии к данной публикации.