вход на сайт

Имя пользователя :
Пароль :

Восстановление пароля Регистрация
Тутси / Tootsie (Сидни Поллак, Драма, мелодрама, комедия, 1982) [DVDRip, Профессиональный (полное дублирование) советский дубляж + Авторский (одноголосый, закадровый) Михалёв + Оригинал + Субтитры: Eng.]
Рейтинг:
(голосов: 1)



[img]{THEME}/images/logopost.png[/img]



Тутси / Tootsie

Год выпуска: 1982
Страна: США
Производство: Columbia Pictures Corporation, Delphi, Mirage Enterprises, Punch Productions Inc.
Жанр: Драма, мелодрама, комедия

Режиссёр: Сидни Поллак
В ролях: Дастин Хоффман, Джессика Лэнг, Тери Гарр, Дэбни Коулмен, Чарльз Дёрнинг, Билл Мюррей, Сидни Поллак, Джордж Гейнс, Джина Дэвис, Дорис Белак

Перевод: Профессиональный (полное дублирование) советский дубляж + Авторский (одноголосый, закадровый) Михалёв + Оригинал (английский)
Субтитры: Английские (внешние *.srt)

Описание:
Актер Майкл Дорси из-за своего характера не может удержаться ни на одной работе. Тогда он переодевается в женское платье и вскоре понимает, что женщиной он больше нравится людям. Дороти-Майкл сразу получает работу. Однако у него возникают трудности с девушкой, которую любит.




Дополнительно:
MediaInfo ▼Text
Общее
Полное имя :K:2. РАЗДАЧАТутсиТутси ootsie.avi
Формат :AVI
Размер :1.37 GiB
Продолжительность :01:56:27.147
Общий поток :1 681 Kbps
Программа кодирования :transcode-1.0.2

Видео
Идентификатор :0
Формат :MPEG-4 Visual
Профиль формата :Advanced [email protected]
Параметр BVOP формата :1
Параметр Qpel формата :No
Параметр GMC формата :0
Параметр Matrix формата :Default (H.263)
Идентификатор кодека :XVID
Продолжительность :1h 56mn 27s 147ms
Битрейт :1 278 Kbps
Ширина :624 pixels
Высота :272 pixels
Соотношение сторон :2.294
Частота кадров :23.976 fps
Глубина цвета :8 bits
Подвыборка цветности :4:2:0
Цветовое пространство :YUV
Тип развертки :Progressive
Бит/(Пиксели*Кадры) :0.314
Размер потока :1.04 GiB (76%)
Библиотека кодирования :XviD0046

Аудио #1
Идентификатор :1
Формат :MPEG Audio
Идентификатор кодека :55
Продолжительность :01:56:27.102
Вид битрейта :Constant
Битрейт :128 Kbps
Канал(ы) :2 channels
Частота :48.0 KHz
Битовая глубина :16 bits
Метод сжатия :Lossy
Размер потока :107 MiB (8%)

Аудио #2
Идентификатор  
4cac1145164498f6ede50567d382b713da4b9a3cТутси / Tootsie (Сидни Поллак, Драма, мелодрама, комедия, 1982) [DVDRip, Профессиональный (полное дублирование) советский дубляж + Авторский (одноголосый, закадровый) Михалёв + Оригинал + Субтитры: Eng.] Тутси / Tootsie (Сидни Поллак, Драма, мелодрама, комедия, 1982) [DVDRip, Профессиональный (полное дублирование) советский дубляж + Авторский (одноголосый, закадровый) Михалёв + Оригинал + Субтитры: Eng.] " />

Аплоадер: Админ, дата: 11-05-2013, 20:07, торрент скачан: 359 раз

Понравилась раздача? Посмотрите эти:
  • Чертополох / Ironweed (Эктор Бабенко, драма, 1987) [HDRip, Профессиональный ...
  • Мистер Судьба / Mr. Destiny (Джеймс Орр, комедия, 1985) [DVDRip, Профессион ...
  • Красотка / Pretty Woman (Гэрри Маршалл, мелодрама, комедия, 1990) [BDRip-AV ...
  • Тутси / Tootsie (Сидни Поллак, драма, мелодрама, комедия, 1982) [HDTVRip, П ...
  • Неспящие в Сиэтле / Sleepless in Seattle (Нора Эфрон, Драма, мелодрама, ком ...
  • Иеремия Джонсон / Jeremiah Johnson (Сидни Поллак, драма, вестерн, 1972) [BD ...
  • Тутси / Tootsie (Сидни Поллак, комедия, 1982) [DVDRip, профессиональный (мн ...
  • Тутси / Tootsie (Sydney Pollack (Сидни Поллак), драма, мелодрама, комедия, ...
  • Тутси / Tootsie (Сидни Поллак / Sydney Pollack, 1982 г., Комедия) [DVDRip, ...
  • Чужие деньги / Other Peoples Money (Норман Джуисон, драма, мелодрама, комед ...
  • А ей ни слова обо мне / Dont Tell Her Its Me (Малкольм Маубрэй, Мелодрама, ...
  • Выходной день Ферриса Бьюлера / Ferris Buellers Day Off (Джон Хьюз, Драма, ...
  • Выбор Софи / Sophies Choice (Алан Дж. Пакула, Драма, мелодрама, 1982) [DVDR ...
  • Доктор Голливуд / Doc Hollywood (Майкл Кейтон-Джонс, мелодрама, комедия, 19 ...
  • Тутси / Tootsie (Сидни Поллак, Драма, мелодрама, комедия, 1982) [HDTVRip-AV ...
  • Подмена / Switch (Блейк Эдвардс, фэнтези, комедия, криминал, 1991) [DVDRip, ...
  • Самолетом, поездом, машиной / Planes, Trains & Automobiles (Джон Хьюз, Драм ...
  • Огни рампы / Limelight (Чарльз Чаплин, драма, мелодрама, комедия, музыка, 1 ...
  • Майами Блюз / Miami Blues (Джордж Эрмитаж, триллер, драма, мелодрама, крими ...
  • Зелиг / Zelig (Вуди Аллен, фэнтези, комедия, 1983) [DVDRip, Авторский (одно ...
  • Виктор/Виктория / Victor/Victoria (Блейк Эдвардс, мелодрама, комедия, музык ...
  • Буйно помешанные / Stir Crazy (Сидни Пуатье, комедия, криминал, 1980) [HDRi ...
  • Флетч жив / Fletch Lives (Майкл Ритчи, Комедия, криминал, детектив, 1989) [ ...
  • Домоуправ / The Super (Род Дэниэл, Комедия, 1991) [DVDRip, Авторский (одног ...
  • Король Ральф / King Ralph (Дэвид С. Уорд, мелодрама, комедия, 1991) [HDTVRi ...
  • Информация
    Посетители, находящиеся в группе Гости, не могут оставлять комментарии к данной публикации.