вход на сайт

Имя пользователя :
Пароль :

Восстановление пароля Регистрация
Волшебная страна / Finding Neverland (Марк Форстер, Драма, семейный, биография, 2004) [BDRip-AVC, Дубляж + Профессиональный (многоголосый, закадровый) + Оригинал (Английский) + Sub]
Рейтинг:
(голосов: 1)



[img]{THEME}/images/logopost.png[/img]



Волшебная страна / Finding Neverland
«Where will your imagination take you?»

Год выпуска: 2004
Страна: США, Великобритания
Производство: FilmColony, Miramax Films
Жанр: Драма, семейный, биография

Режиссёр: Марк Форстер
В ролях: Джонни Депп, Кейт Уинслет, Фредди Хаймор, Джули Кристи, Рада Митчелл, Дастин Хоффман, Иэн Харт, Келли Макдоналд, Макензи Крук, Айлин Эссел

Перевод: Дубляж + Профессиональный (многоголосый, закадровый) Украинский-Новый Канал + Оригинал (Английский)
Субтитры: Русские, Английские (отключаемые)

Описание: Писатель-неудачник Дж. Меттью Барри не повинуется законам консервативного Лондона и становится другом одинокой вдовы, а также приемным отцом ее четырем маленьким сыновьям. Новая семья дарит вдохновение: писатель создает детского героя Питера Пена и чудесную сказку о детях, которые не хотят взрослеть…
Качество: BDRip-AVC
Продолжительность: 01:41:05

Формат: MKV
Видео кодек: AVC
Аудио кодек: AC3
Видео: 1024x432 (2,40:1), 23,976 fps, Advanced Video Codec ~1 285 kbps avg, 0.121 bit/pixel
Аудио #1: 48 kHz, AC3 Dolby Digital, 6 ch, ~384.00 kbps avg - [Дубляж]
Аудио #2: 48 kHz, AC3 Dolby Digital, 2 ch, ~192.00 kbps avg - [MVO]
Аудио #3: 48 kHz, AC3 Dolby Digital, 2 ch, ~192.00 kbps avg - [Eng]

Дата премьеры (мир): 4 сентября 2004
Дата премьеры (РФ): 17 февраля 2005, «West»

MediaInfo ▼Общее
Уникальный идентификатор : 175968906266952187173677049769063819123 (0x846260EB0417D215B1E60FDD89C32773)
Полное имя : D:TorrentFinding Neverland.2004.BDRip-AVC.mkv
Формат : Matroska
Версия формата : Version 4 / Version 2
Размер файла : 1,45 Гбайт
Продолжительность : 1 ч. 41 м.
Общий поток : 2055 Кбит/сек
Название фильма : Волшебная страна / Finding Neverland (2004) BDRip-AVC rip by Rulya74
Дата кодирования : UTC 2013-05-05 05:51:58
Программа кодирования : mkvmerge v6.2.0 (Promised Land) built on Apr 28 2013 12:22:01
Библиотека кодирования : libebml v1.3.0 + libmatroska v1.4.0

Видео
Идентификатор : 1
Формат : AVC
Формат/Информация : Advanced Video Codec
Профиль формата : [email protected]
Параметр CABAC формата : Да
Параметр ReFrames формата : 10 кадров
Идентификатор кодека : V_MPEG4/ISO/AVC
Продолжительность : 1 ч. 41 м.
Битрейт : 1285 Кбит/сек
Ширина : 1024 пикселя
Высота : 432 пикселя
Соотношение сторон : 2,40:1
Режим частоты кадров : Постоянный
Частота кадров : 23,976 кадра/сек
Цветовое пространство : YUV
Субдискретизация насыщенности : 4:2:0
Битовая глубина : 8 бит
Тип развёртки : Прогрессивная
Бит/(Пиксели*Кадры) : 0.121
Размер потока : 901 Мбайт (61%)
Библиотека кодирования : x264 core 130 r2273 b3065e6
Настройки программы : cabac=1 / ref=10 / deblock=1:-3:-2 / analyse=0x1:0x111 / me=umh / subme=9 / psy=1 / psy_rd=1.26:0.07 / mixed_ref=1 / me_range=32 / chroma_me=1 / trellis=0 / 8x8dct=0 / cqm=0 / deadzone=21,11 / fast_pskip=0 / chroma_qp_offset=-2 / threads=3 / lookahead_threads=1 / sliced_threads=0 / nr=0 / decimate=0 / interlaced=0 / bluray_compat=0 / constrained_intra=0 / bframes=7 / b_pyramid=2 / b_adapt=0 / b_bias=0 / direct=0 / weightb=0 / open_gop=0 / weightp=0 / keyint=250 / keyint_min=23 / scenecut=40 / intra_refresh=0 / rc_lookahead=60 / rc=2pass / mbtree=1 / bitrate=1285 / ratetol=1.0 / qcomp=0.60 / qpmin=0 / qpmax=69 / qpstep=4 / cplxblur=20.0 / qblur=0.5 / vbv_maxrate=10000 / vbv_bufsize=10000 / nal_hrd=none / ip_ratio=1.40 / aq=1:1.00
Default : Да
Forced : Нет

Аудио #1
Идентификатор : 2
Формат : AC-3
Формат/Информация : Audio Coding 3
Расширение режима : CM (complete main)
Параметр Endianness формата : Big
Идентификатор кодека : A_AC3
Продолжительность : 1 ч. 41 м.
Вид битрейта : Постоянный
Битрейт : 384 Кбит/сек
Каналы : 6 каналов
Расположение каналов : Front: L C R, Side: L R, LFE
Частота : 48,0 КГц
Битовая глубина : 16 бит
Метод сжатия : С потерями
Размер потока : 278 Мбайт (19%)
Заголовок : Дублированный
Язык : Russian
Default : Да
Forced : Нет

Аудио #2
Идентификатор : 3
Формат : AC-3
Формат/Информация : Audio Coding 3
Расширение
a3f871cbe2c8e30d02b96d86a3887ecda9fa305bВолшебная страна / Finding Neverland (Марк Форстер, Драма, семейный, биография, 2004) [BDRip-AVC, Дубляж + Профессиональный (многоголосый, закадровый) + Оригинал (Английский) + Sub] Волшебная страна / Finding Neverland (Марк Форстер, Драма, семейный, биография, 2004) [BDRip-AVC, Дубляж + Профессиональный (многоголосый, закадровый) + Оригинал (Английский) + Sub] " />

Аплоадер: Админ, дата: 6-05-2013, 00:45, торрент скачан: 359 раз

Понравилась раздача? Посмотрите эти:
  • Странный Томас / Odd Thomas (Стивен Соммерс, триллер, детектив, 2013) [BDRi ...
  • Погнали! / Getaway (Кортни Соломон, боевик, криминал, 2013) [BDRip-AVC, Про ...
  • Война миров Z / World War Z [Theatrical Cut] (Марк Форстер, ужасы, фантасти ...
  • Филадельфия / Philadelphia (Джонатан Демме, Драма, 1993) [BDRip-AVC, Профес ...
  • Стукач / Snitch (Рик Роман Во, Триллер, драма, 2013) [BDRip-AVC, Дубляж, Ор ...
  • Неспящие в Сиэтле / Sleepless in Seattle (Нора Эфрон, Драма, мелодрама, ком ...
  • Никто не выжил / No One Lives (Рюхэй Китамура, Триллер, ужасы, 2012) [BDRip ...
  • Летучий отряд Скотланд-Ярда / The Sweeney (Ник Лав, Боевик, драма, криминал ...
  • Залив / The Bay (Барри Левинсон, Ужасы, фантастика, триллер, 2012) [BDRip-A ...
  • Порочные игры / Stoker (Пак Чхан Ук, Триллер, драма, детектив, 2013) [BDRip ...
  • Порочные игры / Stoker (Пак Чхан Ук, Триллер, драма, детектив, 2013) [BDRip ...
  • Миллион для чайников / The Brass Teapot (Рамаа Мосли, драма, биография, ист ...
  • Рикошет / Ricochet (Ник Гомез, драма, детектив, 2011) [BDRip-AVC, Профессио ...
  • Запретная любовь / The Edge of Love (Джон Мэйбери, Драма, мелодрама, военны ...
  • Никто не знает ничего / Nobody Knows Anything! (Уильям Тэннен, Комедия, 200 ...
  • Мрачные небеса / Dark Skies (Скотт Чарльз Стюарт, Ужасы, фантастика, трилле ...
  • Ангелы Чарли / Charlies Angels (МакДжи, Боевик, триллер, комедия, криминал, ...
  • Неуязвимая мишень / Naam yi boon sik (Бенни Чан, Боевик, криминал, 2007) [B ...
  • Волшебная страна / Finding Neverland (Марк Форстер, Драма, семейный, биогра ...
  • Толстяк на ринге / Here Comes the Boom (Фрэнк Корачи, Боевик, комедия, 2012 ...
  • Суррогат / The Sessions (Бен Луин, Драма, 2012) [BDRip-AVC, Профессиональны ...
  • Эд Вуд / Ed Wood (Тим Бёртон, драма, комедия, биография, 1994) [BDRip-AVC, ...
  • Волшебная страна / Finding Neverland (Марк Форстер, драма, семейный, биогра ...
  • Волшебная страна / Finding Neverland (Марк Форстер, драма, семейный, биогр ...
  • Волшебная страна / Finding Neverland (Марк Форстер, драма, семейный, биогра ...
  • Информация
    Посетители, находящиеся в группе Гости, не могут оставлять комментарии к данной публикации.