вход на сайт

Имя пользователя :
Пароль :

Восстановление пароля Регистрация
Запретная любовь / The Edge of Love (Джон Мэйбери, Драма, мелодрама, военный, биография, 2008) [BDRip-AVC, Профессиональный (многоголосый, закадровый) [R5] + Оригинал (английский) + Sub]
Рейтинг:
(голосов: 1)



[img]{THEME}/images/logopost.png[/img]



Запретная любовь / The Edge of Love
«The only thing more dangerous than war... is love.»


Год выпуска: 2008
Страна: Великобритания
Производство: BBC Films, Capitol Films, Prescience, Prescience Film Fund, Rainy Day Films, Sarah Radclyffe Productions Limited
Жанр: Драма, мелодрама, военный, биография

Режиссёр: Джон Мэйбери
В ролях: Кира Найтли, Киллиан Мёрфи, Сиенна Миллер, Мэттью Риз, Лиза Стэнсфилд, Huw Ceredig, Ричард Клиффорд, Ричард Диллэйн, Joel Dommett, Рэйчел Эссекс

Перевод: Профессиональный (многоголосый закадровый) [R5] + Оригинал (английский)
Субтитры: Русские, английские

Описание: Сложные межличностные отношения четырех людей, имевшие место на самом деле в Англии в 1940-х годах, чуть не привели к трагедии. История двух мужчин и двух женщин, запутавшихся в собственных поступках, остановившихся в тупике, в который их завели ошибки.



Автор рипа:

Качество: BDRip-AVC
Продолжительность: 01:50:38 час.

Формат: MKV
Видео кодек: x264
Аудио кодек: AC3
Видео: 1024x560 (1.85:1), 24.000 fps, x264 ~1 366 kbps avg, 0.099 bit/pixel
Аудио #1: 48 kHz, AC3 Dolby Digital, 6 ch, ~384.00 kbps | Профессиональный (многоголосый закадровый) [R5]
Аудио #2: 48 kHz, AC3 Dolby Digital, 2 ch, ~128.00 kbps | Оригинал (английский)

Дата премьеры (мир): 15 мая 2008

"MediaInfo" ▼Общее
Уникальный идентификатор : 199473226123468351824558448824636817368 (0x9611255BA243273C82117A329CF63FD8)
Полное имя : D:TorrentThe Edge of Love.2008.BDRip-AVC.mkv
Формат : Matroska
Версия формата : Version 4 / Version 2
Размер файла : 1,45 Гбайт
Продолжительность : 1 ч. 50 м.
Общий поток : 1877 Кбит/сек
Название фильма : Запретная любовь / The Edge of Love (2008) BDRip-AVC rip by Rulya74
Дата кодирования : UTC 2013-05-20 03:39:47
Программа кодирования : mkvmerge v6.2.0 (Promised Land) built on Apr 28 2013 12:22:01
Библиотека кодирования : libebml v1.3.0 + libmatroska v1.4.0

Видео
Идентификатор : 1
Формат : AVC
Формат/Информация : Advanced Video Codec
Профиль формата : [email protected]
Параметр CABAC формата : Да
Параметр ReFrames формата : 12 кадров
Идентификатор кодека : V_MPEG4/ISO/AVC
Продолжительность : 1 ч. 50 м.
Битрейт : 1366 Кбит/сек
Ширина : 1024 пикселя
Высота : 560 пикселей
Соотношение сторон : 1,85:1
Режим частоты кадров : Постоянный
Частота кадров : 24,000 кадра/сек
Цветовое пространство : YUV
Субдискретизация насыщенности : 4:2:0
Битовая глубина : 8 бит
Тип развёртки : Прогрессивная
Бит/(Пиксели*Кадры) : 0.099
Размер потока : 1,03 Гбайт (71%)
Библиотека кодирования : x264 core 132 r2310 76a5c3a
Настройки программы : cabac=1 / ref=12 / deblock=1:-2:-1 / analyse=0x3:0x113 / me=umh / subme=10 / psy=1 / psy_rd=1.38:0.08 / mixed_ref=1 / me_range=32 / chroma_me=1 / trellis=2 / 8x8dct=1 / cqm=0 / deadzone=21,11 / fast_pskip=0 / chroma_qp_offset=-3 / threads=2 / lookahead_threads=1 / sliced_threads=0 / nr=0 / decimate=1 / interlaced=0 / bluray_compat=0 / constrained_intra=0 / bframes=7 / b_pyramid=2 / b_adapt=2 / b_bias=0 / direct=3 / weightb=1 / open_gop=0 / weightp=2 / keyint=240 / keyint_min=22 / scenecut=40 / intra_refresh=0 / rc_lookahead=40 / rc=2pass / mbtree=1 / bitrate=1366 / ratetol=1.0 / qcomp=0.60 / qpmin=0 / qpmax=69 / qpstep=4 / cplxblur=20.0 / qblur=0.5 / vbv_maxrate=62500 / vbv_bufsize=78125 / nal_hrd=none / ip_ratio=1.40 / aq=1:1.00
Default : Да
Forced : Нет

Аудио #1
Идентификатор : 2
Формат : AC-3
Формат/Информация : Audio Coding 3
Расширение режима : CM (complete main)
Параметр Endianness формата : Big
Идентификатор кодека : A_AC3
Продолжительность : 1 ч. 50 м.
Вид битрейта : Постоянный
Битрейт : 384 Кбит/сек
Каналы : 6 каналов
Расположение каналов : Front: L C R, Side: L R, LFE
Частота : 48,0 КГц
Битовая глубина : 16 бит
Метод сжатия : С потерями
Размер потока : 304 Мбайт (20%)
Заголовок : Профессиональный (многоголосый закадровый)
Язык : Russian
D
2a7c984210bf6e04209d0bc32321f50bd66150c4Запретная любовь / The Edge of Love (Джон Мэйбери, Драма, мелодрама, военный, биография, 2008) [BDRip-AVC, Профессиональный (многоголосый, закадровый) [R5] + Оригинал (английский) + Sub] Запретная любовь / The Edge of Love (Джон Мэйбери, Драма, мелодрама, военный, биография, 2008) [BDRip-AVC, Профессиональный (многоголосый, закадровый) [R5] + Оригинал (английский) + Sub] " />

Аплоадер: Админ, дата: 25-05-2013, 09:15, торрент скачан: 359 раз

Понравилась раздача? Посмотрите эти:
  • Кадиллак Рекордс / Cadillac Records (Дарнелл Мартин, драма, мелодрама, биог ...
  • Бунраку / Bunraku (Гай Моше, боевик, триллер, драма, 2010) [BDRip-AVC, Проф ...
  • Погнали! / Getaway (Кортни Соломон, боевик, криминал, 2013) [BDRip 1080p, П ...
  • Погнали! / Getaway (Кортни Соломон, боевик, криминал, 2013) [BDRip-AVC, Про ...
  • Византия / Byzantium (Нил Джордан, Фэнтези, триллер, драма, 2012) [BDRip 10 ...
  • Лавлэйс / Lovelace (Роб Эпштейн, Джеффри Фридман, драма, биография, 2013) [ ...
  • Филадельфия / Philadelphia (Джонатан Демме, Драма, 1993) [BDRip-AVC, Профес ...
  • Летучий отряд Скотланд-Ярда / The Sweeney (Ник Лав, Боевик, драма, криминал ...
  • Поймай толстуху, если сможешь / Identity Thief [Theatrical Cut] (Сет Гордон ...
  • Залив / The Bay (Барри Левинсон, Ужасы, фантастика, триллер, 2012) [BDRip-A ...
  • Порочные игры / Stoker (Пак Чхан Ук, Триллер, драма, детектив, 2013) [BDRip ...
  • Порочные игры / Stoker (Пак Чхан Ук, Триллер, драма, детектив, 2013) [BDRip ...
  • Миллион для чайников / The Brass Teapot (Рамаа Мосли, драма, биография, ист ...
  • Больше, чем любовь / A Lot Like Love (Найджел Коул, Драма, мелодрама, комед ...
  • Рикошет / Ricochet (Ник Гомез, драма, детектив, 2011) [BDRip-AVC, Профессио ...
  • Волшебная страна / Finding Neverland (Марк Форстер, Драма, семейный, биогра ...
  • Даю год / I Give It a Year (Дэн Мазер, мелодрама, комедия, 2012) [BDRip-AVC ...
  • Линкольн / Lincoln (Стивен Спилберг, драма, военный, биография, история, 20 ...
  • Запретная любовь / The Edge of Love (Джон Мэйбери, Драма, мелодрама, военны ...
  • Суррогат / The Sessions (Бен Луин, Драма, 2012) [BDRip-AVC, Профессиональны ...
  • Любовь / Love (Уильям Юбэнк, Фантастика, драма, 2011) [BDRip-AVC, Профессио ...
  • Эд Вуд / Ed Wood (Тим Бёртон, драма, комедия, биография, 1994) [BDRip-AVC, ...
  • Запретная любовь / The Edge of Love (Джон Мэйбери, драма, 2008) [BDRip, Про ...
  • Запретная любовь / The Edge of Love (Джон Мэйбери / John Maybury, драма, ме ...
  • Запретная любовь / The Edge of Love ( Джон Мэйбери, Драма, мелодрама, военн ...
  • Информация
    Посетители, находящиеся в группе Гости, не могут оставлять комментарии к данной публикации.