вход на сайт

Имя пользователя :
Пароль :

Восстановление пароля Регистрация
Одинокая женщина / Kobieta samotna (Агнешка Холланд, драма, 1981) [DVDRip, Любительский (одноголосый, закадровый) + оригинал, Субтитры: Rus]
Рейтинг:
(голосов: 1)



[img]{THEME}/images/logopost.png[/img]



Одинокая женщина / Kobieta samotna

Год выпуска: 1981
Страна: Польша
Производство: Telewizja Polska (TVP), Zespol Filmowy "X"
Жанр: драма

Режиссёр: Агнешка Холланд
В ролях: Мария Хвалибог, Богуслав Линда, Павел Витчак, Danuta Balicka-Satanowska, Божена Барановска, Lucja Burzynska, Danuta Gallert, Хенрик Хунко, Мацей Карпински, Рышард Котыс

Перевод: Любительский (одноголосый, закадровый) + оригинал
Субтитры: русские

Описание:
Почтальон Ирена живет в пригороде Варшавы и одна воспитывает восьмилетнего сына. Однажды она падает в обморок на пороге дома шахтера, которому принесла пенсию по инвалидности. И, не смотря что давно уже решила жить одна — влюбилась.


Дополнительно:
MediaInfo ▼Text
Общее
Полное имя :D:Одинокая женщинаОдинокая женщинаKobieta samotna.avi
Формат :AVI
Размер :1.58 GiB
Продолжительность :01:31:37.968
Общий поток :2 470 Kbps
Программа кодирования :VirtualDubModRus 1.5.10.2 (build 2542/release)
Библиотека кодирования :VirtualDubMod build 2542/release

Видео
Идентификатор :0
Формат :MPEG-4 Visual
Профиль формата :Advanced [email protected]
Параметр BVOP формата :2
Параметр Qpel формата :No
Параметр GMC формата :0
Параметр Matrix формата :Default (MPEG)
Идентификатор кодека :XVID
Продолжительность :1h 31mn 37s 960ms
Битрейт :2 071 Kbps
Ширина :704 pixels
Высота :528 pixels
Соотношение сторон :1.333
Частота кадров :25.000 fps
Глубина цвета :8 bits
Подвыборка цветности :4:2:0
Цветовое пространство :YUV
Тип развертки :Progressive
Бит/(Пиксели*Кадры) :0.223
Размер потока :1.33 GiB (84%)
Библиотека кодирования :XviD0050

Аудио #1
Идентификатор :1
Формат :MPEG Audio
Идентификатор кодека :55
Продолжительность :01:31:37.968
Вид битрейта :Constant
Битрейт :192 Kbps
Канал(ы) :2 channels
Частота :48.0 KHz
Метод сжатия :Lossy
Размер потока :126 MiB (8%)

Аудио #2
Идентификатор :2
Формат &nbs
486720f72ad8297309336f9db6646af0c7fed8d9Одинокая женщина / Kobieta samotna (Агнешка Холланд, драма, 1981) [DVDRip, Любительский (одноголосый, закадровый) + оригинал, Субтитры: Rus] Одинокая женщина / Kobieta samotna (Агнешка Холланд, драма, 1981) [DVDRip, Любительский (одноголосый, закадровый) + оригинал, Субтитры: Rus] " />

Аплоадер: Админ, дата: 20-08-2013, 10:57, торрент скачан: 359 раз

Понравилась раздача? Посмотрите эти:
  • Карлик Нос / Zwerg Nase (Карл-Хайнц Бальс, фэнтези, 1978) [DVDRip, Любитель ...
  • Сигнальщик / The Signalman (Лоуренс Гордон Кларк, короткометражка, ужасы, ...
  • Пленники болот / Lure of the Wilderness (Жан Негулеско, драма, мелодрама, п ...
  • Отдел исполнения наказаний / La polizia ringrazia (Стено, драма, криминал, ...
  • Тайная полиция Италии / Italian Secret Service (Луиджи Коменчини, комедия, ...
  • Маркиз дель Грилло / Il Marchese del Grillo (Марио Моничелли, комедия, 1981 ...
  • Ботинок по имени Мелихар / Bota Jmenem Melichar (Зденек Трошка, семейный, 1 ...
  • С тобой меня радует мир / S tebou me bavi svet (Мария Поледнякова, комедия, ...
  • Свидетель обвинения / Witness for the Prosecution (Билли Уайлдер, драма, де ...
  • Партизанская эскадрилья / Partizanska eskadrila (Хайрудин Крвавац, драма, в ...
  • След кота (Уильям А. Уэллмен, драма, вестерн, 1954) [DVDRip, Любительский ( ...
  • Путешествие на Луну / Le Voyage dans la Lune (Жорж Мельес, короткометражка, ...
  • Черное солнце: Бойня в Нанкине / Hei tai yang Nan Jing da tu sha (Тун Фей М ...
  • На серебряной планете / Na srebrnym globie (Анджей Жулавски, фантастика, фэ ...
  • Земля Фараонов / Land of the Pharaohs (Ховард Хоукс, драма, история, 1955) ...
  • Нет мира под оливами / Non ce pace tra gli ulivi (Джузеппе де Сантис, драма ...
  • Плохие спят спокойно / Warui yatsu hodo yoku nemuru (Акира Куросава, трилле ...
  • Отвратительные, грязные, злые / Brutti, sporchi e cattivi (Этторе Скола, др ...
  • Розенкранц и Гильденштерн мертвы / Rosencrantz & Guildenstern Are Dead (Том ...
  • Урок любви / En lektion i karlek (Ингмар Бергман, драма, комедия, 1954) [DV ...
  • Ростовщик / The Pawnbroker (Сидни Люмет, драма, 1964) [DVDRip, Любительский ...
  • Как раздражать людей / How to Irritate People (Йен Фордайсе, комедия, 1969) ...
  • Человек из мрамора / Czlowiek z marmuru (2 части из 2-х) (Анджей Вайда, дра ...
  • Эмбрион охотится тайно / Taiji ga mitsuryo suru toki (Кодзи Вакамацу, драма ...
  • Медведи и я / The Bears and I (Бернард МакЭвети, драма, семейный, 1974) [DV ...
  • Информация
    Посетители, находящиеся в группе Гости, не могут оставлять комментарии к данной публикации.