вход на сайт

Имя пользователя :
Пароль :

Восстановление пароля Регистрация
Кавказский пленник (Сергей Бодров, драма, военный, 1996) [DVDRip-AVC, не требуется]
Рейтинг:
(голосов: 1)



[img]{THEME}/images/logopost.png[/img]



«Кавказский пленник»

«An extraordinary story of hope, courage and humanity.»

Год выпуска: 1996
Страна:Россия
Производство: Караван
Жанр: драма, военный

Режиссёр: Сергей Бодров / Sergey Bodrov
В ролях: Олег Меньшиков, Сергей Бодров мл., Джемал Сихарулидзе, Сусанна Мехралиева, Александр Буреев, Валентина Федотова, Алексей Жарков, Т. Кибыев, Валерий Кострин, Павел Лебешев

Перевод: не требуется
Субтитры: нет

Описание
На Кавказе — война. Двух раненых русских солдат забирает житель отдаленного горного аула Абдул-Марат. Сын Абдул-Марата находится в плену у русских, и старик хочет договориться с комендантом лагеря об обмене пленными.



- Лицам до 17 лет обязательно присутствие взрослого

Тех.Данные
Качество: DVDRip-AVC
Продолжительность: ~ 01:39:16 часа

Формат: MKV
Видео кодек: AVC
Аудио кодек: AC3
Видео: 816x432 (1,889), 23,976 fps, AVC ~1888 kbps avg, 0.223 bit/pixel
Аудио: 48.00 kHz, AC3 Dolby Digital, 2/0 (L,R) ch, ~192 kbps avg

MediaInfo ▼TextОбщее
Уникальный идентификатор : 222184789460646629530985619923801209113 (0xA7273BE23E872A9BB4DE065233DFF919)
Полное имя : E:DownloadsКавказский пленник.1996.DVDRip-AVC.mkv
Формат : Matroska
Версия формата : Version 2
Размер файла : 1,44 Гбайт
Продолжительность : 1 ч. 39 м.
Общий поток : 2081 Кбит/сек
Название фильма : The Jolly Roger Release Group
Дата кодирования : UTC 2013-08-02 11:44:34
Программа кодирования : mkvmerge v4.0.0 (The Stars were mine) збірка від Jun 6 2010 16:18:42
Библиотека кодирования : libebml v1.0.0 + libmatroska v1.0.0

Видео
Идентификатор : 1
Формат : AVC
Формат/Информация : Advanced Video Codec
Профиль формата : [email protected]
Параметр CABAC формата : Да
Параметр ReFrames формата : 9 кадров
Идентификатор кодека : V_MPEG4/ISO/AVC
Продолжительность : 1 ч. 39 м.
Битрейт : 1888 Кбит/сек
Ширина : 816 пикселей
Высота : 432 пикселя
Соотношение сторон : 1,889
Частота кадров : 23,976 кадра/сек
Цветовое пространство : YUV
Субдискретизация насыщенности : 4:2:0
Битовая глубина : 8 бит
Тип развёртки : Прогрессивная
Бит/(Пиксели*Кадры) : 0.223
Размер потока : 1,28 Гбайт (89%)
Библиотека кодирования : x264 core 130 r2273 b3065e6
Настройки программы : cabac=1 / ref=9 / deblock=1:-1:-1 / analyse=0x3:0x133 / me=umh / subme=9 / psy=1 / psy_rd=1.00:0.15 / mixed_ref=1 / me_range=32 / chroma_me=1 / trellis=2 / 8x8dct=1 / cqm=0 / deadzone=21,11 / fast_pskip=0 / chroma_qp_offset=-3 / threads=3 / lookahead_threads=1 / sliced_threads=0 / nr=0 / decimate=1 / interlaced=0 / bluray_compat=0 / constrained_intra=0 / bframes=8 / b_pyramid=2 / b_adapt=2 / b_bias=0 / direct=3 / weightb=1 / open_gop=0 / weightp=2 / keyint=250 / keyint_min=23 / scenecut=40 / intra_refresh=0 / rc_lookahead=50 / rc=2pass / mbtree=1 / bitrate=1888 / ratetol=1.0 / qcomp=0.60 / qpmin=0 / qpmax=69 / qpstep=4 / cplxblur=20.0 / qblur=0.5 / ip_ratio=1.40 / aq=1:1.00
Default : Нет
Forced : Нет

Аудио
Идентификатор : 2
Формат : AC-3
Формат/Информация : Audio Coding 3
Профиль формата : Dolby Digital
Расширение режима : CM (complete main)
Идентификатор кодека : A_AC3
Продолжительность : 1 ч. 39 м.
Вид битрейта : Постоянный
Битрейт : 192 Кбит/сек
Каналы : 2 канала
Расположение каналов : Front: L R
Частота : 48,0 КГц
Битовая глубина : 16 бит
Метод сжатия : С потерями
Размер потока : 136 Мбайт (9%)
Default : Нет
Forced : Нет



e041398c83ced8471ac8ccf57f3c3235e9d154edКавказский пленник (Сергей Бодров, драма, военный, 1996) [DVDRip-AVC, не требуется] Кавказский пленник (Сергей Бодров, драма, военный, 1996) [DVDRip-AVC, не требуется] " />

Аплоадер: Админ, дата: 7-08-2013, 11:03, торрент скачан: 359 раз

Понравилась раздача? Посмотрите эти:
  • Кавказский пленник (Сергей Бодров, Драма, 1996) [DVDRip, Не требуется]
  • Усатый нянь (Владимир Грамматиков, комедия, семейный, 1977) [DVDRip-AVC, Не ...
  • Интимные места (Наталья Меркулова, Алексей Чупов, драма, мелодрама, 2013) [ ...
  • Марафон (Карен Оганесян, комедия, 2013) [DVDRip-AVC, Не требуется]
  • Они сражались за Родину (полная версия) (Сергей Бондарчук, драма, военный, ...
  • Филадельфия / Philadelphia (Джонатан Демме, Драма, 1993) [BDRip-AVC, Профес ...
  • Башня / The Tower (Чи-хун Ким, драма, 2012) [BDRip-AVC, Любительский (двухг ...
  • А зори здесь тихие... // Эпизоды с 1 по 12 (из 12) (Боевик, драма, военный ...
  • Гараж (Эльдар Рязанов, драма, комедия, 1979) [DVDRip-AVC, Оригинал (русский ...
  • Рикошет / Ricochet (Ник Гомез, драма, детектив, 2011) [BDRip-AVC, Профессио ...
  • Новые технологии войны / The New Technology of War [Часть 1] (документальны ...
  • Новые технологии войны / The New Technology of War [Часть 2] (документальны ...
  • Суррогат / The Sessions (Бен Луин, Драма, 2012) [BDRip-AVC, Профессиональны ...
  • Мертвое поле (Александр Аравин, Драма, военный, 2006) [DVDRip-AVC, Оригинал ...
  • Чемпионат Англии 2012-2013 / 25-й тур / Обзор / Суббота / BBC Sport [2013 г ...
  • Я тоже хочу (Алексей Балабанов, драма, криминал, 2012) [DVDRip-AVC, Не треб ...
  • День учителя (Сергей Мокрицкий, драма, 2012) [DVDRip-AVC, Не требуется]
  • Лоракс: Серенада / The Lorax: Serenade (Кайл Балда, мультфильм, комедия, му ...
  • Кавказский пленник ( Сергей Бодров, Драма, военный,1996) [DVDRip,Оригинал]
  • Кавказский пленник ( Сергей Бодров, Драма, военный,1996) [DVDRip,Оригинал]
  • Информация
    Посетители, находящиеся в группе Гости, не могут оставлять комментарии к данной публикации.