вход на сайт

Имя пользователя :
Пароль :

Восстановление пароля Регистрация
Решала (Роман Асхаев, Драма,Криминал, 2012) [WEB-DLRip, Не требуется]
Рейтинг:
(голосов: 1)



[img]{THEME}/images/logopost.png[/img]



Решала
------



Год выпуска: 2012
Страна: Россия
Жанр: Драма,Криминал

Режиссер: Роман Асхаев
В ролях: Александр Фролов, Константин Озеров, Алина Намсараева, Мосэ Куртанидзэ, Руслан Балакшиев, Лариса Иринцеева

Перевод: Не требуется
Субтитры: Отсутствуют

Описание: Фильм о двух братьях. Старший — юрист, успешный человек, к нему обращаются за решением различных вопросов. Но ему предстоит решить самую главную задачу своей жизни-вытащить младшего брата из криминальной передряги.



МедиаИнфо ▼Text

D:Reshala.2012.O.WEBDLRip.avi
General
Complete name : D:Reshala.2012.O.WEBDLRip.avi
Format : AVI
Format/Info : Audio Video Interleave
File size : 1.37 GiB
Duration : 1h 19mn
Overall bit rate : 2 472 Kbps
Writing application : VirtualDubMod 1.5.10.3 | www.virtualdub-fr.org || (build 2550/release)
Writing library : VirtualDubMod build 2550/release
Video #0
ID : 0
Format : MPEG-4 Visual
Format profile : Advanced [email protected]
Format settings, BVOP : Yes
Format settings, QPel : No
Format settings, GMC : No warppoints
Format settings, Matrix : Default (MPEG)
Codec ID : XVID
Codec ID/Hint : XviD
Duration : 1h 19mn
Bit rate : 2 206 Kbps
Width : 720 pixels
Height : 304 pixels
Display aspect ratio : 2.35:1
Frame rate : 24.000 fps
Color space : YUV
Chroma subsampling : 4:2:0
Bit depth : 8 bits
Scan type : Progressive
Compression mode : Lossy
Bits/(Pixel*Frame) : 0.420
Stream size : 1.22 GiB (89%)
Writing library : XviD 1.2.1 (UTC 2008-12-04)
Audio #1
ID : 1
Format : AC-3
Format/Info : Audio Coding 3
Mode extension : CM (complete main)
Codec ID : 2000
Duration : 1h 19mn
Bit rate mode : Constant
Bit rate : 256 Kbps
Channel(s) : 2 channels
Channel positions : Front: L R
Sampling rate : 48.0 KHz
Bit depth : 16 bits
Compression mode : Lossy
Stream size : 145 MiB (10%)
Alignment : Split accross interleaves
Interleave, duration : 42 ms (1.00 video frame)
Interleave, preload duration : 500 ms



Качество: WEB-DLRip
Продолжительность: 01:19:10

Формат: AVI
Видео кодек: XviD
Аудио кодек: AC3
Видео: 720x304 (2.37:1), 24.000 fps, XviD build 50 ~2206 kbps avg, 0.42 bit/pixel
Аудио: 48 kHz, AC3 Dolby Digital, 2/0 (L,R) ch, ~256.00 kbps avg





2b67c66f2991101b99b82a330b3e43977c857f0cРешала (Роман Асхаев, Драма,Криминал, 2012) [WEB-DLRip, Не требуется] Решала (Роман Асхаев, Драма,Криминал, 2012) [WEB-DLRip, Не требуется] " />

Аплоадер: Админ, дата: 10-07-2013, 16:33, торрент скачан: 359 раз

Понравилась раздача? Посмотрите эти:
  • Вирус / Flu (Ким Сон Су, Драма, 2013) [HDTVRip, Любительский (двухголосый з ...
  • Орудие смерти / A-i-deul... (Ли Гю Ман, Триллер, криминал, 2011) [DVDRip, П ...
  • Марафон (Карен Оганесян, комедия, 2013) [WEB-DLRip, Не требуется]
  • Верное дельце / Une pure affaire (Александр Коффре, Боевик, Комедия, Кримин ...
  • Мои герои / Mes heros (Эрик Беснард, комедия, 2012) [HDRip, Профессиональны ...
  • Икона сезона (Сергей Швыдкой,Драма, комедия, 2013) [DVDRip, Не требуется]
  • Мужество / Wymyk (Грег Зглински, драма, 2011) [DVDRip, Любительский (одного ...
  • Слабые проблески / Rushlights (Энтони Стац, Триллер, Мелодрама, Криминал, 2 ...
  • Решала (Роман Асхаев, Драма,Криминал, 2012) [WEB-DLRip, Не требуется]
  • Звук моего голоса / Sound of My Voice (Зал Батманглидж, триллер, драма, 201 ...
  • Слепой поворот / Blind Turn (Роберт Орр, Триллер, драма, детектив, 2012) [W ...
  • 23:59 / 23:59 (Гилберт Чан, Ужасы, 2011) [HDRip, Любительский (одноголосый ...
  • Чемпионат Италии 2012-13 / 36-й тур / Рома — Кьево / НТВ+ [07.05.2013, SD, ...
  • Тюремщик / Screwed (Рег Тревисс / Reg Traviss, Драма, 2011) [DVDRip , Люби ...
  • Плохая актриса / Bad Actress (Роберт Ли Кинг, комедия, 2011) [DVDRip, Профе ...
  • Захват / Carjacked (Джон Бонито, триллер, 2011)[BDRip, Профессиональный (мн ...
  • Чемпионат Европы 2012 / Группа C / 1-й тур / Ирландия — Хорватия / ТРК Футб ...
  • Чемпионат Европы 2012 / Группа D / 1-й тур / Украина - Швеция / Спорт 1 [11 ...
  • Олимпиада 2012 / Мужчины / Группа D / 1-й тур / Испания — Япония / НТВ+ [Фу ...
  • Олимпиада 2012 / Футбол / Мужчины / Группа A / 3-й тур / Великобритания - У ...
  • Tank Feat. T.I. & Kris Stephens / Compliments [2012, RnB,Hip-Hop, HDRip]
  • Чемпионат Европы 2012 / Группа B / 1-й тур / Германия - Португалия / Спорт ...
  • NBA Finals 2012 / Sportscenter / В преддверии 3-ей игры / Viasat Sport [Бас ...
  • Супершторм в Сиэтле / Seattle Superstorm (Джейсон Бурк, фантастика, боевик ...
  • Олимпиада 2012 / Женщины, Мужчины / Плавание / Квалификация / НТВ+ [30.07.2 ...
  • Информация
    Посетители, находящиеся в группе Гости, не могут оставлять комментарии к данной публикации.