вход на сайт

Имя пользователя :
Пароль :

Восстановление пароля Регистрация
Сломленные / Broken (Руфус Норрис, драма, 2012) [HDRip, Профессиональный (многоголосый, закадровый)]
Рейтинг:
(голосов: 1)



[img]{THEME}/images/logopost.png[/img]



Сломленные / Broken
------



Год выпуска: 2012
Страна: Великобритания
Производство: BBC Films, Bill Kenwright Films, Cuba Pictures
Жанр: Драма

Режиссер: Руфус Норрис
В ролях: Тим Рот, Киллиан Мёрфи, Элуиз Лоуренс, Рори Киннер, Дэнис Лосон, Билл Милнер, Зана Марьянович, Роберт Эммс, Лино Фасиоль, Нелл Тайгер Фри

Перевод: Профессиональный (многоголосый, закадровый)
Субтитры: Отсутствуют

Описание: Девчонке по кличке Сканк (Вонючка) — 11 лет. У неё диабет. Она — классная. Только начались летние каникулы, и дни её полны лёгких надежд. Но противный дядька из дома напротив, избивает Рика, доброго, но очень ранимого соседского паренька, поскольку его дочь обвиняет Рика в изнасиловании. Мир вокруг стремительно рушится; Сканк ищет утешения в тихой дружбе с Риком, но запутывается окончательно.



Премьера (мир): 17 мая 2012, ...
Премьера (РФ): 8 ноября 2012, «P&I Films», «A-One Films»

МедиаИнфо ▼Text

D:Slomlennye.2012.P.HDRip.avi
General
Complete name : D:Slomlennye.2012.P.HDRip.avi
Format : AVI
Format/Info : Audio Video Interleave
File size : 1.37 GiB
Duration : 1h 31mn
Overall bit rate : 2 150 Kbps
Writing application : VirtualDubMod 1.5.10.2 (build 2540/release)
Writing library : VirtualDubMod build 2540/release
Video #0
ID : 0
Format : MPEG-4 Visual
Format profile : Advanced [email protected]
Format settings, BVOP : Yes
Format settings, QPel : No
Format settings, GMC : No warppoints
Format settings, Matrix : Custom
Codec ID : XVID
Codec ID/Hint : XviD
Duration : 1h 31mn
Bit rate : 1 885 Kbps
Width : 720 pixels
Height : 384 pixels
Display aspect ratio : 1.875
Frame rate : 23.976 fps
Color space : YUV
Chroma subsampling : 4:2:0
Bit depth : 8 bits
Scan type : Progressive
Compression mode : Lossy
Bits/(Pixel*Frame) : 0.284
Stream size : 1.20 GiB (88%)
Writing library : XviD 1.2.1 (UTC 2008-12-04)
Audio #1
ID : 1
Format : AC-3
Format/Info : Audio Coding 3
Mode extension : CM (complete main)
Codec ID : 2000
Duration : 1h 31mn
Bit rate mode : Constant
Bit rate : 256 Kbps
Channel(s) : 2 channels
Channel positions : Front: L R
Sampling rate : 48.0 KHz
Bit depth : 16 bits
Compression mode : Lossy
Stream size : 167 MiB (12%)
Alignment : Split accross interleaves
Interleave, duration : 42 ms (1.00 video frame)
Interleave, preload duration : 500 ms



Качество: HDRip [Рип с BDRip 720p]
Продолжительность: 01:31:03

Формат: AVI
Видео кодек: XviD
Аудио кодек: AC3
Видео: 720x384 (1.88:1), 23.976 fps, XviD build 50 ~1884 kbps avg, 0.28 bit/pixel
Аудио: 48 kHz, AC3 Dolby Digital, 2/0 (L,R) ch, ~256 kbps





24960c914aab5b3ca93d9a64dd24329a1d9ad45eСломленные / Broken (Руфус Норрис, драма, 2012) [HDRip, Профессиональный (многоголосый, закадровый)] Сломленные / Broken (Руфус Норрис, драма, 2012) [HDRip, Профессиональный (многоголосый, закадровый)] " />

Аплоадер: Админ, дата: 10-07-2013, 07:51, торрент скачан: 359 раз

Понравилась раздача? Посмотрите эти:
  • Погнали! / Getaway (Кортни Соломон, Боевик, Криминал, 2013) [HDRip, Професс ...
  • Верное дельце / Une pure affaire (Александр Коффре, Боевик, Комедия, Кримин ...
  • Мои герои / Mes heros (Эрик Беснард, комедия, 2012) [HDRip, Профессиональны ...
  • Давид и мадам Ансен / David et Madame Hansen (Александр Астье, драма, 2012) ...
  • Мужество / Wymyk (Грег Зглински, драма, 2011) [DVDRip, Любительский (одного ...
  • 42 / 42 (Брайан Хелгеленд, драма, биография, спорт, 2013) [BDRip, Профессио ...
  • Ночь тамплиера / Night of the Templar (Пол Сэмпсон, Ужасы, фантастика, боев ...
  • Звук моего голоса / Sound of My Voice (Зал Батманглидж, триллер, драма, 201 ...
  • Слепой поворот / Blind Turn (Роберт Орр, Триллер, драма, детектив, 2012) [W ...
  • 23:59 / 23:59 (Гилберт Чан, Ужасы, 2011) [HDRip, Любительский (одноголосый ...
  • Сломленные / Broken (Руфус Норрис, Драма, 2012) [DVDRip, Профессиональный ( ...
  • Безопасность не гарантируется / Safety Not Guaranteed (Колин Треворроу, фан ...
  • В хлам / Smashed (Джеймс Понсольдт, Драма, комедия, 2012) [HDRip, Профессио ...
  • Сломленные / Broken (Руфус Норрис, Драма, 2012) [DVDRip, Профессиональный ( ...
  • Простые истины / Straight As (Джеймс Кокс, драма, комедия, 2013) [HDRip, П ...
  • Плохая актриса / Bad Actress (Роберт Ли Кинг, комедия, 2011) [DVDRip, Профе ...
  • Доля ангелов / The Angels Share (Кен Лоуч, драма, комедия, 2012) [HDRip, Пр ...
  • Супер циклон / Super Cyclone (Лиз Адамс / Liz Adams, боевик, 2012) [HDRip, ...
  • Захват / Carjacked (Джон Бонито, триллер, 2011)[BDRip, Профессиональный (мн ...
  • Tank Feat. T.I. & Kris Stephens / Compliments [2012, RnB,Hip-Hop, HDRip]
  • Замёрзший мир / 2012: Ice Age (Трэвис Форт, фантастика, боевик, 2011) [HDRi ...
  • Супершторм в Сиэтле / Seattle Superstorm (Джейсон Бурк, фантастика, боевик ...
  • Три балбеса / The Three Stooges (Бобби Фаррелли, Питер Фаррелли, Комедия, 2 ...
  • Девушки в опасности / Damsels in Distress (Уит Стиллман, драма, мелодрама, ...
  • Глаз шторма / The Eye of the Storm (Фред Скеписи, Драма, 2011) [HDRip, Проф ...
  • Информация
    Посетители, находящиеся в группе Гости, не могут оставлять комментарии к данной публикации.