вход на сайт

Имя пользователя :
Пароль :

Восстановление пароля Регистрация
Сафо / Sappho (Роберт Кромби /Robert Crombie, Драма, мелодрама, 2008) [BDRip-AVC , Профессиональный (полное дублирование), Оригинал(английский), Sub]
Рейтинг:
(голосов: 1)



[img]{THEME}/images/logopost.png[/img]



Сафо / Sappho

Год выпуска: 2008
Страна: Украина
Производство: Ялта-Фильм
Жанр: Драма, мелодрама

Режиссёр: Роберт Кромби
В ролях:Авалон Барри, Тодд Соли, Людмила Ширяева, Богдан Ступка, Александр Леонтаритис, Элиссаиос Влахос, Вассилис Психоуепоулос, Оксана Осипова, Сергей Козенко, Анатолий Семенов


Перевод: Профессиональный (полное дублирование), Оригинал(английский)
Субтитры: Английские, русские, украинские |отключаемые|

Описание: Молодая американская пара отправляется на остров Лесбос провести свой медовый месяц. Она — избалованная дочь миллионера, он- начинающий художник. Их ждет прохлада морской глубины, раскаленный песок и страсть, не знающая границ. Вкушая все прелести греческого острова, они не подозревают, что это путешествие станет для них роковым.

Знакомство с рыжеволосой Хеленой — открывает им новые грани чувственности. Судьбы героев переплетаются в нестандартный любовный треугольник, который обречен стать вторым рождением легенды о древнегреческой поэтессе Сафо воспевшей неординарную любовь.Качество: BDRip-AVC / Сэмпл
Продолжительность: 01:32:19

Формат: MKV
Видео кодек: H.264
Аудио кодек: AC3
Видео: 912x494 (1,85:1), 23,976 fps, H.264, 2623 kbps avg, 0.243 bit/pixel
Аудио#1: 48 kHz, AC3, 6 ch, ~384.00 kbps avg (Профессиональный (полное дублирование))
Аудио#2: 48 kHz, AC3, 6 ch, ~384.00 kbps avg (ENG)
"MediaInfo" ▼Общее
Полное имя : Safo.2008.D.BDRip.x264.potroks.mkv
Формат : Matroska
Версия формата : Version 4 / Version 2
Размер файла : 2,18 Гбайт
Продолжительность : 1 ч. 32 м.
Общий поток : 3393 Кбит/сек
Название фильма : -=POTROKS=-
Дата кодирования : UTC 2013-07-05 12:52:39
Программа кодирования : mkvmerge v5.9.0 (On The Loose) built on Dec 15 2012 16:39:58
Библиотека кодирования : libebml v1.3.0 + libmatroska v1.4.0

Видео
Идентификатор : 1
Формат : AVC
Формат/Информация : Advanced Video Codec
Профиль формата : [email protected]
Параметр CABAC формата : Да
Параметр ReFrames формата : 9 кадров
Идентификатор кодека : V_MPEG4/ISO/AVC
Продолжительность : 1 ч. 32 м.
Битрейт : 2623 Кбит/сек
Ширина : 912 пикселей
Высота : 494 пикселя
Соотношение сторон : 1,85:1
Режим частоты кадров : Постоянный
Частота кадров : 23,976 кадра/сек
Цветовое пространство : YUV
Субдискретизация насыщенности : 4:2:0
Битовая глубина : 8 бит
Тип развёртки : Прогрессивная
Бит/(Пиксели*Кадры) : 0.243
Размер потока : 1,64 Гбайт (75%)
Заголовок : Sappho
Библиотека кодирования : x264 core 128 r2216M 198a7ea
Настройки программы : cabac=1 / ref=10 / deblock=1:-2:-2 / analyse=0x3:0x133 / me=umh / subme=11 / psy=1 / psy_rd=1.06:0.03 / mixed_ref=1 / me_range=32 / chroma_me=1 / trellis=2 / 8x8dct=1 / cqm=0 / deadzone=21,11 / fast_pskip=0 / chroma_qp_offset=-3 / threads=6 / lookahead_threads=1 / sliced_threads=0 / nr=0 / decimate=0 / interlaced=0 / bluray_compat=0 / constrained_intra=0 / bframes=11 / b_pyramid=1 / b_adapt=2 / b_bias=0 / direct=3 / weightb=1 / open_gop=0 / weightp=2 / keyint=240 / keyint_min=23 / scenecut=40 / intra_refresh=0 / rc_lookahead=150 / rc=2pass / mbtree=1 / bitrate=2623 / ratetol=1.0 / qcomp=0.70 / qpmin=0 / qpmax=69 / qpstep=4 / cplxblur=20.0 / qblur=0.5 / vbv_maxrate=20000 / vbv_bufsize=20000 / nal_hrd=none / ip_ratio=1.35 / aq=1:0.80
Язык : Ukrainian
Default : Да
Forced : Нет

Аудио #1
Идентификатор : 2
Формат : AC-3
Формат/Информация : Audio Coding 3
Расширение режима : CM (complete main)
Параметр Endianness формата : Big
Идентификатор кодека : A_AC3
Продолжительность : 1 ч. 32 м.
Вид битрейта : Постоянный
Битрейт : 384 Кбит/сек
Каналы : 6 каналов
Расположение каналов : Front: L C R, Side: L R, LFE
Частота : 48,0 КГц
Битовая глубина : 16 бит
Метод сжатия : С потерями
Задержка видео : 24 мс.
Размер потока : 253 Мбайт (11%)
Заголовок : Dub | DD 5.1 @ 384 kbps
Язык : Russian
Default : Да
Forced : Да
&nbs
1b2ea65b05e70551bc0139388b6a79af88853308Сафо / Sappho (Роберт Кромби /Robert Crombie, Драма, мелодрама, 2008) [BDRip-AVC , Профессиональный (полное дублирование), Оригинал(английский), Sub] Сафо / Sappho (Роберт Кромби /Robert Crombie, Драма, мелодрама, 2008) [BDRip-AVC , Профессиональный (полное дублирование), Оригинал(английский), Sub] " />

Аплоадер: Админ, дата: 5-07-2013, 19:32, торрент скачан: 359 раз

Понравилась раздача? Посмотрите эти:
  • Одноклассники 2 / Grown Ups 2 (Деннис Дуган, Комедия, 2013) [BDRip-AVC, Про ...
  • Погнали! / Getaway (Кортни Соломон, боевик, криминал, 2013) [BDRip-AVC, Про ...
  • Лавлэйс / Lovelace (Роб Эпштейн, Джеффри Фридман, драма, биография, 2013) [ ...
  • Война миров Z / World War Z [Theatrical Cut] (Марк Форстер, ужасы, фантасти ...
  • Никто не выжил / No One Lives (Рюхэй Китамура, Триллер, ужасы, 2012) [BDRip ...
  • Летучий отряд Скотланд-Ярда / The Sweeney (Ник Лав, Боевик, драма, криминал ...
  • Залив / The Bay (Барри Левинсон, Ужасы, фантастика, триллер, 2012) [BDRip-A ...
  • Порочные игры / Stoker (Пак Чхан Ук, Триллер, драма, детектив, 2013) [BDRip ...
  • Порочные игры / Stoker (Пак Чхан Ук, Триллер, драма, детектив, 2013) [BDRip ...
  • Фантомы / Shutter (Масаюки Очиай, ужасы, триллер, детектив, 2008) [BDRip-AV ...
  • Поймай толстуху, если сможешь [Театральная версия] / Identity Thief [Theatr ...
  • Больше, чем любовь / A Lot Like Love (Найджел Коул, Драма, мелодрама, комед ...
  • Мама / Mama (Андрес Мускетти, ужасы, фэнтези, триллер, 2013) [BDRip-AVC, Пр ...
  • Начало времен / Year One (Харольд Рэмис, Фантастика, комедия, приключения, ...
  • Даю год / I Give It a Year (Дэн Мазер, мелодрама, комедия, 2012) [BDRip-AVC ...
  • Возвращение героя / The Last Stand (Ким Чжи Ун, боевик, триллер, криминал, ...
  • Линкольн / Lincoln (Стивен Спилберг, драма, военный, биография, история, 20 ...
  • Крученый мяч / Trouble with the Curve (Роберт Лоренц, Драма, 2012) [BDRip-A ...
  • Суррогат / The Sessions (Бен Луин, Драма, 2012) [BDRip-AVC, Профессиональны ...
  • Ищу друга на конец света / Seeking a Friend for the End of the World (Лорен ...
  • Эд Вуд / Ed Wood (Тим Бёртон, драма, комедия, биография, 1994) [BDRip-AVC, ...
  • Четыре Рождества / Four Christmases (Сет Гордон, Драма, мелодрама, комедия, ...
  • Большой отрыв БОБа / B.O.B.s Big Break (Роберт Портер, короткометражка, ан ...
  • Сейчас самое время / Now Is Good (Ол Паркер, Мелодрама, 2012) [BDRip-AVC, П ...
  • Сафо / Sappho (Роберт Кромби /Robert Crombie, Мелодрама, Драма, Эротика, 20 ...
  • Информация
    Посетители, находящиеся в группе Гости, не могут оставлять комментарии к данной публикации.