вход на сайт

Имя пользователя :
Пароль :

Восстановление пароля Регистрация
42 / 42 (Брайан Хелгеленд, драма, биография, спорт, 2013) [BDRip, Профессиональный (многоголосый закадровый) + Sub[rus,eng]]
Рейтинг:
(голосов: 1)



[img]{THEME}/images/logopost.png[/img]



42 / 42
«In a game divided by color, he made us see greatness.»



Год выпуска: 2013
Страна: США
Производство: Warner Bros. Pictures
Жанр: драма, биография, спорт

Режиссер: Брайан Хелгеленд
В ролях: Харрисон Форд, Чэдвик Боузман, Николь Бихери,Кристофер Мелони,Райан Мерриман,Лукас Блэк Андре,Холлэнд Алан,Тьюдик Хамиш, Линклэйтер Т.Р. Найт

Перевод: Профессиональный (многоголосый закадровый)
Субтитры: Русские (iTunes), Английские (SDH)

Описание: Фильм посвящен тому, как Брэнч Рики и Джеки Робинсон уничтожили сегрегацию в бейсболе в 1947 году.



Дата премьеры (мир): 12 апреля 2013, ...

МедиаИнфо ▼Text

D:42.2013.BDRip42.2013.BDRip.avi
General
Complete name : D:42.2013.BDRip42.2013.BDRip.avi
Format : AVI
Format/Info : Audio Video Interleave
Format profile : OpenDML
File size : 2.18 GiB
Duration : 2h 8mn
Overall bit rate : 2 436 Kbps
Writing application : VirtualDubMod 1.5.10.2 (build 2540/release)
Writing library : VirtualDubMod build 2540/release
Video #0
ID : 0
Format : MPEG-4 Visual
Format profile : Advanced [email protected]
Format settings, BVOP : Yes
Format settings, QPel : No
Format settings, GMC : No warppoints
Format settings, Matrix : Custom
Codec ID : XVID
Codec ID/Hint : XviD
Duration : 2h 8mn
Bit rate : 1 976 Kbps
Width : 720 pixels
Height : 304 pixels
Display aspect ratio : 2.35:1
Frame rate : 23.976 fps
Color space : YUV
Chroma subsampling : 4:2:0
Bit depth : 8 bits
Scan type : Progressive
Compression mode : Lossy
Bits/(Pixel*Frame) : 0.377
Stream size : 1.77 GiB (81%)
Writing library : XviD 73
Audio #1
ID : 1
Format : AC-3
Format/Info : Audio Coding 3
Mode extension : CM (complete main)
Codec ID : 2000
Duration : 2h 8mn
Bit rate mode : Constant
Bit rate : 448 Kbps
Channel(s) : 2 channels
Channel positions : Front: L R
Sampling rate : 48.0 KHz
Bit depth : 16 bits
Compression mode : Lossy
Video delay : 1s 500ms
Stream size : 411 MiB (18%)
Alignment : Split accross interleaves
Interleave, duration : 42 ms (1.00 video frame)
Interleave, preload duration : 500 ms



Качество: BDRip
Продолжительность: 02:08:14

Формат: AVI
Видео кодек: XviD
Аудио кодек: AC3
Видео: 720x304 (2.37:1), 23.976 fps, XviD build 73 ~1980 kbps avg, 0.38 bit/pixel
Аудио: 48 kHz, AC3 Dolby Digital, 2/0 (L,R) ch, ~448.00 kbps avg





64d67be9f7fa9424c198768b4c5ee42afb4217a542 / 42 (Брайан Хелгеленд, драма, биография, спорт, 2013) [BDRip, Профессиональный (многоголосый закадровый) + Sub[rus,eng]] 42 / 42 (Брайан Хелгеленд, драма, биография, спорт, 2013) [BDRip, Профессиональный (многоголосый закадровый) + Sub[rus,eng]] " />

Аплоадер: Админ, дата: 4-07-2013, 16:15, торрент скачан: 359 раз

Понравилась раздача? Посмотрите эти:
  • Погнали! / Getaway (Кортни Соломон, Боевик, Криминал, 2013) [HDRip, Професс ...
  • Вирус / Flu (Ким Сон Су, Драма, 2013) [HDTVRip, Любительский (двухголосый з ...
  • Орудие смерти / A-i-deul... (Ли Гю Ман, Триллер, криминал, 2011) [DVDRip, П ...
  • Верное дельце / Une pure affaire (Александр Коффре, Боевик, Комедия, Кримин ...
  • Посылка / The Package (Джесси Джонсон, боевик, 2013) [HDRip, Профессиональн ...
  • Мэрайа Мунди и шкатулка Мидаса / The Adventurer: The Curse of the Midas Box ...
  • [EN] 42 / 42 (Брайан Хелгеленд, Драма, биография, спорт, 2013) [BDRip, Ориг ...
  • Мужество / Wymyk (Грег Зглински, драма, 2011) [DVDRip, Любительский (одного ...
  • 42 / 42 (Брайан Хелгеленд, драма, биография, спорт, 2013) [BDRip, Профессио ...
  • 42 / 42 (Брайан Хелгеленд, Драма, биография, спорт, 2013) [BDRip 720p, Проф ...
  • 42 / 42 (Брайан Хелгеленд, драма, биография, спорт, 2013) [BDRip-AVC, Профе ...
  • Поймай толстуху, если сможешь [Театральная версия] / Identity Thief [Theatr ...
  • 42 / 42 (Брайан Хелгеленд, драма, биография, спорт, 2013) [HDRip, Профессио ...
  • Звук моего голоса / Sound of My Voice (Зал Батманглидж, триллер, драма, 201 ...
  • 42 / 42 (Брайан Хелгеленд, Драма, биография, спорт, 2013) [BDRip 1080p, Про ...
  • 42 / 42 (Брайан Хелгеленд, Драма, биография, спорт, 2013) [BDRip 720p, Проф ...
  • В хлам / Smashed (Джеймс Понсольдт, Драма, комедия, 2012) [HDRip, Профессио ...
  • Псы войны / The Dogs of War (Джон Ирвин, боевик, драма, приключения, военны ...
  • Простые истины / Straight As (Джеймс Кокс, драма, комедия, 2013) [HDRip, П ...
  • Плохая актриса / Bad Actress (Роберт Ли Кинг, комедия, 2011) [DVDRip, Профе ...
  • Джефф, живущий дома / Jeff, Who Lives at Home (Джей Дюпласс, Марк Дюпласс, ...
  • Захват / Carjacked (Джон Бонито, триллер, 2011)[BDRip, Профессиональный (мн ...
  • Трус / Faintheart (Вито Рокко, Комедия, 2008) [BDRip, Профессиональный (дву ...
  • Супершторм в Сиэтле / Seattle Superstorm (Джейсон Бурк, фантастика, боевик ...
  • Девушки в опасности / Damsels in Distress (Уит Стиллман, драма, мелодрама, ...
  • Информация
    Посетители, находящиеся в группе Гости, не могут оставлять комментарии к данной публикации.