вход на сайт

Имя пользователя :
Пароль :

Восстановление пароля Регистрация
Давид и мадам Ансен / David et Madame Hansen (Александр Астье, драма, 2012) [HDRip, Профессиональное (многоголосое, закадровый)]
Рейтинг:
(голосов: 1)



[img]{THEME}/images/logopost.png[/img]



Давид и мадам Ансен / David et Madame Hansen
------



Год выпуска: 2012
Страна: Франция
Производство: Pathé, Regular, Canal+
Жанр: Драма

Режиссер: Александр Астье
В ролях: Изабель Аджани, Александр Астье, Джули-Энн Рот, Виктор Шамбон, Jean-Charles Simon, Дафна Бюрки, Pauline Moingeon, Элоди Хесме, Себастьен ЛаЛэйнн, Stéphanie Heiser

Перевод: Профессиональное (многоголосое, закадровый) [НТВ+]
Субтитры: Отсутствуют

Описание: Давид, психиатр дорогой швейцарской клиники, соглашается подменить отсутствующего коллегу и сопровождать богатую пациентку в поездке по городу. Результаты поездки удивят обоих.



Премьера (мир): 25 августа 2012, ...

МедиаИнфо ▼Text

D:David.i.madam.Ansen.2012.P.HDRip.avi
General
Complete name : D:David.i.madam.Ansen.2012.P.HDRip.avi
Format : AVI
Format/Info : Audio Video Interleave
File size : 1.37 GiB
Duration : 1h 29mn
Overall bit rate : 2 193 Kbps
Writing application : VirtualDubMod 1.5.10.2 (build 2540/release)
Writing library : VirtualDubMod build 2540/release
Video #0
ID : 0
Format : MPEG-4 Visual
Format profile : Advanced [email protected]
Format settings, BVOP : Yes
Format settings, QPel : No
Format settings, GMC : No warppoints
Format settings, Matrix : Default (MPEG)
Codec ID : XVID
Codec ID/Hint : XviD
Duration : 1h 29mn
Bit rate : 1 992 Kbps
Width : 720 pixels
Height : 304 pixels
Display aspect ratio : 2.35:1
Frame rate : 24.000 fps
Color space : YUV
Chroma subsampling : 4:2:0
Bit depth : 8 bits
Scan type : Progressive
Compression mode : Lossy
Bits/(Pixel*Frame) : 0.379
Stream size : 1.24 GiB (91%)
Writing library : XviD 1.2.1 (UTC 2008-12-04)
Audio #1
ID : 1
Format : AC-3
Format/Info : Audio Coding 3
Mode extension : CM (complete main)
Codec ID : 2000
Duration : 1h 29mn
Bit rate mode : Constant
Bit rate : 192 Kbps
Channel(s) : 2 channels
Channel positions : Front: L R
Sampling rate : 48.0 KHz
Bit depth : 16 bits
Compression mode : Lossy
Stream size : 123 MiB (9%)
Alignment : Split accross interleaves
Interleave, duration : 42 ms (1.00 video frame)
Interleave, preload duration : 500 ms



Качество: HDRip
Продолжительность: 01:29:12

Формат: AVI
Видео кодек: XviD
Аудио кодек: AC3
Видео: 720x304 (2.37:1), 24 fps, XviD build 50 ~1991 kbps avg, 0.38 bit/pixel
Аудио: 48 kHz, AC3 Dolby Digital, 2/0 (L,R) ch, ~192.00 kbps avg





6e05c1d6625c506f5da838780c0a68f57417234cДавид и мадам Ансен / David et Madame Hansen (Александр Астье, драма, 2012) [HDRip, Профессиональное (многоголосое, закадровый)] Давид и мадам Ансен / David et Madame Hansen (Александр Астье, драма, 2012) [HDRip, Профессиональное (многоголосое, закадровый)] " />

Аплоадер: Админ, дата: 21-06-2013, 17:10, торрент скачан: 359 раз

Понравилась раздача? Посмотрите эти:
  • Погнали! / Getaway (Кортни Соломон, Боевик, Криминал, 2013) [HDRip, Професс ...
  • Вирус / Flu (Ким Сон Су, Драма, 2013) [HDTVRip, Любительский (двухголосый з ...
  • Похищенный сын: История Тиффани Рубин / Taken from Me: The Tiffany Rubin St ...
  • Марафон / De Marathon (Дидрик Копал, комедия, спорт, 2012) [HDRip, Професси ...
  • Марафон / De Marathon (Дидрик Копал, комедия, спорт, 2012) [HDRip, Професси ...
  • Верное дельце / Une pure affaire (Александр Коффре, Боевик, Комедия, Кримин ...
  • Мои герои / Mes heros (Эрик Беснард, комедия, 2012) [HDRip, Профессиональны ...
  • Школа «Диаз» / Diaz: Dont Clean Up This Blood (Даниэль Викари, драма, истор ...
  • Мужество / Wymyk (Грег Зглински, драма, 2011) [DVDRip, Любительский (одного ...
  • 42 / 42 (Брайан Хелгеленд, драма, биография, спорт, 2013) [BDRip, Профессио ...
  • Ночь тамплиера / Night of the Templar (Пол Сэмпсон, Ужасы, фантастика, боев ...
  • Сломленные / Broken (Руфус Норрис, драма, 2012) [HDRip, Профессиональный (м ...
  • Решала (Роман Асхаев, Драма,Криминал, 2012) [WEB-DLRip, Не требуется]
  • Звук моего голоса / Sound of My Voice (Зал Батманглидж, триллер, драма, 201 ...
  • Слепой поворот / Blind Turn (Роберт Орр, Триллер, драма, детектив, 2012) [W ...
  • 23:59 / 23:59 (Гилберт Чан, Ужасы, 2011) [HDRip, Любительский (одноголосый ...
  • В хлам / Smashed (Джеймс Понсольдт, Драма, комедия, 2012) [HDRip, Профессио ...
  • Супер циклон / Super Cyclone (Лиз Адамс / Liz Adams, боевик, 2012) [HDRip, ...
  • Захват / Carjacked (Джон Бонито, триллер, 2011)[BDRip, Профессиональный (мн ...
  • Чемпионат Европы 2012 / Группа C / 1-й тур / Ирландия — Хорватия / ТРК Футб ...
  • Tank Feat. T.I. & Kris Stephens / Compliments [2012, RnB,Hip-Hop, HDRip]
  • Супершторм в Сиэтле / Seattle Superstorm (Джейсон Бурк, фантастика, боевик ...
  • Олимпиада 2012 / Женщины, Мужчины / Плавание / Квалификация / НТВ+ [30.07.2 ...
  • Девушки в опасности / Damsels in Distress (Уит Стиллман, драма, мелодрама, ...
  • Глаз шторма / The Eye of the Storm (Фред Скеписи, Драма, 2011) [HDRip, Проф ...
  • Информация
    Посетители, находящиеся в группе Гости, не могут оставлять комментарии к данной публикации.