вход на сайт

Имя пользователя :
Пароль :

Восстановление пароля Регистрация
Школа «Диаз» / Diaz: Dont Clean Up This Blood (Даниэль Викари, драма, история, 2012) [HDRip, Профессиональное (одноголосое)]
Рейтинг:
(голосов: 1)



[img]{THEME}/images/logopost.png[/img]



Школа «Диаз» / Diaz: Dont Clean Up This Blood
------



Год выпуска: 2012
Страна: Италия, Румыния, Франция
Производство: Banca Nazionale del Lavoro
Жанр: драма, история

Режиссер: Даниэль Викари
В ролях: Клаудио Сантамария, Дженнифер Ульрих, Элио Джермано, Davide Iacopini, Ральф Амуссу, Фабрицио Ронджоне, Ренато Скарпа, Маттиа Сбраджа, Антонио Жерарди, Паоло Калабрези

Перевод: Профессиональное (одноголосое) [Антон Алексеев]
Субтитры: Отсутствуют

Описание: Ретроспектива событий 21 июля 2001 года на саммите большой восьмёрки в Генуе, когда группа мирно протестующих активистов была жестоко избита и арестована полицией с применением самых жутких издевательств и пыток. Правозащитная организация Международная Амнистия позднее назовёт эти события самым грубым нарушением прав человека в Западной Европе со времен Второй мировой войны.



Премьера (мир): 12 февраля 2012, ...

МедиаИнфо ▼Text

D:Shkola.Diaz.2012.P.HDRip.1400MB.avi
General
Complete name : D:Shkola.Diaz.2012.P.HDRip.1400MB.avi
Format : AVI
Format/Info : Audio Video Interleave
File size : 1.37 GiB
Duration : 2h 1mn
Overall bit rate : 1 617 Kbps
Writing application : VirtualDubMod 1.5.10.2 (build 2540/release)
Writing library : VirtualDubMod build 2540/release
Video #0
ID : 0
Format : MPEG-4 Visual
Format profile : Advanced [email protected]
Format settings, BVOP : Yes
Format settings, QPel : No
Format settings, GMC : No warppoints
Format settings, Matrix : Default (MPEG)
Codec ID : XVID
Codec ID/Hint : XviD
Duration : 2h 1mn
Bit rate : 1 224 Kbps
Width : 720 pixels
Height : 304 pixels
Display aspect ratio : 2.35:1
Frame rate : 23.976 fps
Color space : YUV
Chroma subsampling : 4:2:0
Bit depth : 8 bits
Scan type : Progressive
Compression mode : Lossy
Bits/(Pixel*Frame) : 0.233
Stream size : 1.03 GiB (76%)
Writing library : XviD 1.2.1 (UTC 2008-12-04)
Audio #1
ID : 1
Format : AC-3
Format/Info : Audio Coding 3
Mode extension : CM (complete main)
Codec ID : 2000
Duration : 2h 1mn
Bit rate mode : Constant
Bit rate : 384 Kbps
Channel(s) : 6 channels
Channel positions : Front: L C R, Side: L R, LFE
Sampling rate : 48.0 KHz
Bit depth : 16 bits
Compression mode : Lossy
Stream size : 332 MiB (24%)
Alignment : Split accross interleaves
Interleave, duration : 42 ms (1.00 video frame)
Interleave, preload duration : 500 ms



Качество: HDRip
Продолжительность: 02:01:01

Формат: AVI
Видео кодек: XviD
Аудио кодек: AC3
Видео: 720x304 (2.37:1), 23.976 fps, XviD build 50 ~1223 kbps avg, 0.23 bit/pixel
Аудио: 48 kHz, AC3 Dolby Digital, 3/2 (L,C,R,l,r) + LFE ch, ~384.00 kbps avg





f20e55ea5d49bf45ad074208464b20331b26df86Школа «Диаз» / Diaz: Dont Clean Up This Blood (Даниэль Викари, драма, история, 2012) [HDRip, Профессиональное (одноголосое)] Школа «Диаз» / Diaz: Dont Clean Up This Blood (Даниэль Викари, драма, история, 2012) [HDRip, Профессиональное (одноголосое)] " />

Аплоадер: Админ, дата: 27-08-2013, 13:05, торрент скачан: 359 раз

Понравилась раздача? Посмотрите эти:
  • Погнали! / Getaway (Кортни Соломон, Боевик, Криминал, 2013) [HDRip, Професс ...
  • Вирус / Flu (Ким Сон Су, Драма, 2013) [HDTVRip, Любительский (двухголосый з ...
  • Похищенный сын: История Тиффани Рубин / Taken from Me: The Tiffany Rubin St ...
  • Верное дельце / Une pure affaire (Александр Коффре, Боевик, Комедия, Кримин ...
  • Мои герои / Mes heros (Эрик Беснард, комедия, 2012) [HDRip, Профессиональны ...
  • Школа «Диаз» / Diaz: Dont Clean Up This Blood (Даниэль Викари, драма, истор ...
  • Кодовое имя «Джеронимо» / Seal Team Six: The Raid on Osama Bin Laden (Джон ...
  • Давид и мадам Ансен / David et Madame Hansen (Александр Астье, драма, 2012) ...
  • Мужество / Wymyk (Грег Зглински, драма, 2011) [DVDRip, Любительский (одного ...
  • Сломленные / Broken (Руфус Норрис, драма, 2012) [HDRip, Профессиональный (м ...
  • Решала (Роман Асхаев, Драма,Криминал, 2012) [WEB-DLRip, Не требуется]
  • Звук моего голоса / Sound of My Voice (Зал Батманглидж, триллер, драма, 201 ...
  • Слепой поворот / Blind Turn (Роберт Орр, Триллер, драма, детектив, 2012) [W ...
  • 23:59 / 23:59 (Гилберт Чан, Ужасы, 2011) [HDRip, Любительский (одноголосый ...
  • В хлам / Smashed (Джеймс Понсольдт, Драма, комедия, 2012) [HDRip, Профессио ...
  • Тюремщик / Screwed (Рег Тревисс / Reg Traviss, Драма, 2011) [DVDRip , Люби ...
  • Супер циклон / Super Cyclone (Лиз Адамс / Liz Adams, боевик, 2012) [HDRip, ...
  • Чемпионат Европы 2012 / Группа C / 1-й тур / Ирландия — Хорватия / ТРК Футб ...
  • Чемпионат Европы 2012 / Группа D / 1-й тур / Украина - Швеция / Спорт 1 [11 ...
  • Олимпиада 2012 / Мужчины / Группа D / 1-й тур / Испания — Япония / НТВ+ [Фу ...
  • Tank Feat. T.I. & Kris Stephens / Compliments [2012, RnB,Hip-Hop, HDRip]
  • Супершторм в Сиэтле / Seattle Superstorm (Джейсон Бурк, фантастика, боевик ...
  • Олимпиада 2012 / Женщины, Мужчины / Плавание / Квалификация / НТВ+ [30.07.2 ...
  • Девушки в опасности / Damsels in Distress (Уит Стиллман, драма, мелодрама, ...
  • Глаз шторма / The Eye of the Storm (Фред Скеписи, Драма, 2011) [HDRip, Проф ...
  • Информация
    Посетители, находящиеся в группе Гости, не могут оставлять комментарии к данной публикации.