вход на сайт

Имя пользователя :
Пароль :

Восстановление пароля Регистрация
Великий Гэтсби / The Great Gatsby (Баз Лурман, драма, мелодрама, 2013) [BDRip-AVC, Дубляж + SUB]
Рейтинг:
(голосов: 1)



[img]{THEME}/images/logopost.png[/img]



Великий Гэтсби / The Great Gatsby
«Нельзя вернуть прошлое? Ну, конечно, можно!»

Год выпуска: 2013
Страна: Австралия , США
Производство: Warner Bros. Pictures
Жанр: Драма, мелодрама

Режиссёр: Баз Лурман
В ролях: Леонардо ДиКаприо, Тоби Магуайр, Кэри Маллиган, Джоэл Эдгертон, Айла Фишер, Лиза Адам, Фрэнк Элдридж, Амитабх Баччан, Стив Бисли, Ричард Картер

Перевод: Дубляж
Субтитры: Russian, English

Описание: Весной 1922 года, в эпоху разлагающейся морали, блистательного джаза и «королей контрабандного алкоголя», Ник Каррауэй приезжает из Среднего Запада в Нью-Йорк. Преследуя собственную американскую мечту, он селится по соседству с таинственным, известным своими вечеринками миллионером Джеем Гэтсби, а на противоположном берегу бухты проживают его кузина Дэйзи и её муж, повеса и аристократ, Том Бьюкенен. Так Ник оказывается вовлечённым в захватывающий мир богатых — их иллюзий, любви и обманов. Он становится свидетелем происходящего в этом мире и пишет историю невозможной любви, вечных мечтаний и человеческой трагедии, которые являются отражением современных времен и нравов.



КиноПоиск Top 250: #154

Качество: BDRip-AVC
Продолжительность: 02:22:05 час.

Формат: MKV
Видео кодек: x264
Аудио кодек: AC3
Видео: 1280x532 (2.40:1), 23.976 fps, AVC ~3950 kbps avg, 0.242 bit/pixel
Аудио 1: 48 kHz, AC3, 3/2 (L,C,R,l,r) + LFE ch, ~448 kbps| Профессиональный (полное дублирование)

Премьера (мир) - 1 мая 2013
Премьера (РФ) - 16 мая 2013, «Каро-Премьер»

MediaInfo ▼General
Unique ID : 182055406338424379138965423922178082962 (0x88F6988A4FE83C30A0A850BE7DDEC892)
Complete name : F:The.Great.Gatsby.2013.BD.720.Hot-Film.mkv
Format : Matroska
Format version : Version 2
File size : 4.37 GiB
Duration : 2h 22mn
Overall bit rate : 4 400 Kbps
Encoded date : UTC 2013-09-06 15:41:32
Writing application : mkvmerge v5.8.0 (No Sleep / Pillow) built on Sep 2 2012 15:37:04
Writing library : libebml v1.2.3 + libmatroska v1.3.0

Video
ID : 1
Format : AVC
Format/Info : Advanced Video Codec
Format profile : [email protected]
Format settings, CABAC : Yes
Format settings, ReFrames : 10 frames
Codec ID : V_MPEG4/ISO/AVC
Duration : 2h 22mn
Bit rate : 3 950 Kbps
Width : 1 280 pixels
Height : 532 pixels
Display aspect ratio : 2.40:1
Frame rate mode : Constant
Frame rate : 23.976 fps
Color space : YUV
Chroma subsampling : 4:2:0
Bit depth : 8 bits
Scan type : Progressive
Bits/(Pixel*Frame) : 0.242
Stream size : 3.84 GiB (88%)
Writing library : x264 core 133 r2334 a3ac64b
Encoding settings : cabac=1 / ref=10 / deblock=1:-2:-2 / analyse=0x3:0x113 / me=umh / subme=11 / psy=1 / psy_rd=1.03:0.10 / mixed_ref=1 / me_range=32 / chroma_me=1 / trellis=2 / 8x8dct=1 / cqm=0 / deadzone=21,11 / fast_pskip=0 / chroma_qp_offset=-3 / threads=2 / lookahead_threads=1 / sliced_threads=0 / nr=0 / decimate=0 / interlaced=0 / bluray_compat=0 / constrained_intra=0 / bframes=11 / b_pyramid=2 / b_adapt=2 / b_bias=0 / direct=3 / weightb=1 / open_gop=0 / weightp=2 / keyint=240 / keyint_min=23 / scenecut=40 / intra_refresh=0 / rc_lookahead=40 / rc=2pass / mbtree=0 / bitrate=3950 / ratetol=1.0 / qcomp=0.60 / qpmin=0 / qpmax=69 / qpstep=4 / cplxblur=20.0 / qblur=0.5 / vbv_maxrate=50000 / vbv_bufsize=62500 / nal_hrd=none / ip_ratio=1.40 / pb_ratio=1.30 / aq=1:0.80
Language : English
Default : Yes
Forced : No

Audio
ID : 2
Format : AC-3
Format/Info : Audio Coding 3
Mode extension : CM (complete main)
Format settings, Endianness : Big
Codec ID : A_AC3
Duration : 2h 22mn
Bit rate mode : Constant
Bit rate : 448 Kbps
Channel(s) : 6 channels
Channel positions : Front: L C R, Side: L R, LFE
Sampling rate : 48.0 KHz
Bit depth : 16 bits
Compression mode : Lossy
Stream size : 455 MiB (10%)
Title : Дубляж
Language : Russian
Default : Yes
Forced : No

Text #1
ID : 3
Format : UTF-8
Codec ID : S_TEXT/UTF8
Codec ID/Info : UTF-8 Plain T
8e0b0ef0c4edca161f511c7ec292545b7de1de07Великий Гэтсби / The Great Gatsby (Баз Лурман, драма, мелодрама, 2013) [BDRip-AVC, Дубляж + SUB] Великий Гэтсби / The Great Gatsby (Баз Лурман, драма, мелодрама, 2013) [BDRip-AVC, Дубляж + SUB] " />

Аплоадер: Админ, дата: 7-09-2013, 01:26, торрент скачан: 359 раз

Понравилась раздача? Посмотрите эти:
  • [3D] Великий Гэтсби / The Great Gatsby (Баз Лурман, Драма, Мелодрама, 2013) ...
  • Великий Гэтсби / The Great Gatsby (Баз Лурман, драма, мелодрама, 2013) [HDR ...
  • Великий Гэтсби / The Great Gatsby (Баз Лурман, драма, мелодрама, 2013) [HD ...
  • Иллюзия обмана / Now You See Me [Theatrical Cut] (Луи Летерье / Louis Leter ...
  • Великий Гэтсби / The Great Gatsby (Баз Лурман, Драма, мелодрама, 2013) [BD ...
  • Великий Гэтсби / The Great Gatsby (Баз Лурман, Драма, мелодрама, 2013) [BDR ...
  • Великий Гэтсби / The Great Gatsby (Баз Лурман, Драма, мелодрама, 2013) [BDR ...
  • Великий Гэтсби / The Great Gatsby (Баз Лурман, Драма, мелодрама, 2013) [BDR ...
  • Великий Гэтсби / The Great Gatsby (Баз Лурман, драма, мелодрама, 2013) [BDR ...
  • [3D] Великий Гэтсби / The Great Gatsby (Баз Лурман, Драма, мелодрама, 2013) ...
  • Великий Гэтсби / The Great Gatsby (Баз Лурман, Драма, мелодрама, 2013) [BDR ...
  • [3D] Великий Гэтсби / The Great Gatsby (Баз Лурман, Драма, мелодрама, 2013) ...
  • [3D] Великий Гэтсби / The Great Gatsby (Баз Лурман, Драма, мелодрама, 2013) ...
  • Великий Гэтсби / The Great Gatsby (Баз Лурман, Драма, мелодрама, 2013) [BDR ...
  • Великий Гэтсби / The Great Gatsby (Баз Лурман, Драма, мелодрама, 2013) [BDR ...
  • Великий Гэтсби / The Great Gatsby (Баз Лурман, Драма, мелодрама, 2013) [Blu ...
  • Великий Гэтсби / The Great Gatsby (Баз Лурман, драма, мелодрама, 2013) [BDR ...
  • Великий Гэтсби / The Great Gatsby (Баз Лурман, драма, мелодрама, 2013) [HDR ...
  • Великий Гэтсби / The Great Gatsby (Баз Лурман, Драма, мелодрама, 2013) [BDR ...
  • (2013) Craig Armstrong / Великий Гэтсби / The Great Gatsby (Score) [MP3, 32 ...
  • Великий Гэтсби / The Great Gatsby (Баз Лурман, драма, мелодрама, 2013) [CAM ...
  • [3D] Великий Гэтсби 3D трейлер / The Great Gatsby 3D trailer (Баз Лурман, Д ...
  • Mylene Farmer / Du Temps [2011, Pop, HDTVRip]
  • Mylene Farmer / Bleu Noir [2011, Pop, HDTVRip]
  • [Трейлер #1] Великий Гэтсби / The Great Gatsby (Баз Лурман, драма, мелодрам ...
  • Информация
    Посетители, находящиеся в группе Гости, не могут оставлять комментарии к данной публикации.