вход на сайт

Имя пользователя :
Пароль :

Восстановление пароля Регистрация
Великий Гэтсби / The Great Gatsby (Баз Лурман, Драма, мелодрама, 2013) [BDRip, Авторский (одноголосый, закадровый)]
Рейтинг:
(голосов: 1)



[img]{THEME}/images/logopost.png[/img]



Великий Гэтсби / The Great Gatsby
«Нельзя вернуть прошлое? Ну, конечно, можно!»

Год выпуска: 2013
Страна: Австралия, США
Производство: Warner Bros. Pictures
Жанр: Драма, мелодрама

Режиссёр: Баз Лурман
В ролях: Леонардо ДиКаприо, Тоби Магуайр, Кэри Маллиган, Джоэл Эдгертон, Айла Фишер, Лиза Адам, Фрэнк Элдридж, Амитабх Баччан, Стив Бисли, Ричард Картер

Перевод: Авторский (одноголосый, закадровый)
Озвучка: Юрий Сербин
Субтитры: Отсутствуют

Описание: Весной 1922 года, в эпоху разлагающейся морали, блистательного джаза и «королей контрабандного алкоголя», Ник Каррауэй приезжает из Среднего Запада в Нью-Йорк. Преследуя собственную американскую мечту, он селится по соседству с таинственным, известным своими вечеринками миллионером Джеем Гэтсби, а на противоположном берегу бухты проживают его кузина Дэйзи и её муж, повеса и аристократ, Том Бьюкенен. Так Ник оказывается вовлечённым в захватывающий мир богатых — их иллюзий, любви и обманов. Он становится свидетелем происходящего в этом мире и пишет историю невозможной любви, вечных мечтаний и человеческой трагедии, которые являются отражением современных времен и нравов.Качество: BDRip |Сэмпл |
Продолжительность: 02:22:05 час.

Формат: AVI
Видео кодек: XviD
Аудио кодек: AC3
Видео: 720x304 (2.35:1), 23.976 fps, XviD build 65 ~1740 kbps avg, 0.332 bit/pixel
Аудио: 48 kHz, AC3 Dolby Digital, 3/2 (L,C,R,l,r) + LFE ch, ~448 kbps avg - (AVO)

Дата премьеры (мир): 1 мая 2013
Дата премьеры (РФ): 16 мая 2013, «Каро-Премьер»

MediaInfo ▼
General
Complete name : D:The.Great.Gatsby.2013.AVO.Serbin.BDRip.2,18Gb.XviD.AC3.avi
Format : AVI
Format/Info : Audio Video Interleave
Format profile : OpenDML
File size : 2.18 GiB
Duration : 2h 22mn
Overall bit rate : 2 200 Kbps
Writing application : VirtualDubModRus 1.5.10.2 (build 2542/release)
Writing library : VirtualDubMod build 2542/release

Video
ID : 0
Format : MPEG-4 Visual
Format profile : Advanced [email protected]
Format settings, BVOP : 1
Format settings, QPel : No
Format settings, GMC : No warppoints
Format settings, Matrix : Custom
Codec ID : XVID
Codec ID/Hint : XviD
Duration : 2h 22mn
Bit rate : 1 740 Kbps
Width : 720 pixels
Height : 304 pixels
Display aspect ratio : 2.35:1
Frame rate : 23.976 fps
Color space : YUV
Chroma subsampling : 4:2:0
Bit depth : 8 bits
Scan type : Progressive
Compression mode : Lossy
Bits/(Pixel*Frame) : 0.332
Stream size : 1.73 GiB (79%)
Writing library : XviD 65

Audio
ID : 1
Format : AC-3
Format/Info : Audio Coding 3
Mode extension : CM (complete main)
Format settings, Endianness : Big
Codec ID : 2000
Duration : 2h 22mn
Bit rate mode : Constant
Bit rate : 448 Kbps
Channel(s) : 6 channels
Channel positions : Front: L C R, Side: L R, LFE
Sampling rate : 48.0 KHz
Bit depth : 16 bits
Compression mode : Lossy
Stream size : 455 MiB (20%)
Alignment : Split accross interleaves
Interleave, duration : 42 ms (1.00 video frame)
Interleave, preload duration : 500 ms
Title : AVO







125ae4e0465d87e6093127ab14965caf303ec77eВеликий Гэтсби / The Great Gatsby (Баз Лурман, Драма, мелодрама, 2013) [BDRip, Авторский (одноголосый, закадровый)] Великий Гэтсби / The Great Gatsby (Баз Лурман, Драма, мелодрама, 2013) [BDRip, Авторский (одноголосый, закадровый)] " />

Аплоадер: Админ, дата: 8-09-2013, 23:14, торрент скачан: 359 раз

Понравилась раздача? Посмотрите эти:
  • [3D] Великий Гэтсби / The Great Gatsby (Баз Лурман, Драма, Мелодрама, 2013) ...
  • Великий Гэтсби / The Great Gatsby (Баз Лурман, драма, мелодрама, 2013) [HDR ...
  • Великий Гэтсби / The Great Gatsby (Баз Лурман, драма, мелодрама, 2013) [HD ...
  • Великий Гэтсби / The Great Gatsby (Баз Лурман, Драма, мелодрама, 2013) [BD ...
  • Великий Гэтсби / The Great Gatsby (Баз Лурман, Драма, мелодрама, 2013) [BDR ...
  • Великий Гэтсби / The Great Gatsby (Баз Лурман, Драма, мелодрама, 2013) [BDR ...
  • Великий Гэтсби / The Great Gatsby (Баз Лурман, драма, мелодрама, 2013) [BDR ...
  • [3D] Великий Гэтсби / The Great Gatsby (Баз Лурман, Драма, мелодрама, 2013) ...
  • Великий Гэтсби / The Great Gatsby (Баз Лурман, драма, мелодрама, 2013) [BDR ...
  • Великий Гэтсби / The Great Gatsby (Баз Лурман, Драма, мелодрама, 2013) [BDR ...
  • [3D] Великий Гэтсби / The Great Gatsby (Баз Лурман, Драма, мелодрама, 2013) ...
  • [3D] Великий Гэтсби / The Great Gatsby (Баз Лурман, Драма, мелодрама, 2013) ...
  • Великий Гэтсби / The Great Gatsby (Баз Лурман, Драма, мелодрама, 2013) [BDR ...
  • Великий Гэтсби / The Great Gatsby (Баз Лурман, Драма, мелодрама, 2013) [BDR ...
  • Великий Гэтсби / The Great Gatsby (Баз Лурман, Драма, мелодрама, 2013) [Blu ...
  • Великий Гэтсби / The Great Gatsby (Баз Лурман, драма, мелодрама, 2013) [BDR ...
  • Великий Гэтсби / The Great Gatsby (Баз Лурман, драма, мелодрама, 2013) [HDR ...
  • Великий Гэтсби / The Great Gatsby (Баз Лурман, Драма, мелодрама, 2013) [BDR ...
  • (2013) Craig Armstrong / Великий Гэтсби / The Great Gatsby (Score) [MP3, 32 ...
  • Возвращение героя / The Last Stand (Ким Чжи-ун, Боевик, триллер, криминал, ...
  • Неудержимый / Bullet to the Head (Уолтер Хилл, Боевик, триллер, криминал, 2 ...
  • Великий Гэтсби / The Great Gatsby (Баз Лурман, драма, мелодрама, 2013) [CAM ...
  • [3D] Великий Гэтсби 3D трейлер / The Great Gatsby 3D trailer (Баз Лурман, Д ...
  • Великий Гэтсби / The Great Gatsby (Джек Клейтон, драма, мелодрама, 1974) [D ...
  • [Трейлер #1] Великий Гэтсби / The Great Gatsby (Баз Лурман, драма, мелодрам ...
  • Информация
    Посетители, находящиеся в группе Гости, не могут оставлять комментарии к данной публикации.