вход на сайт

Имя пользователя :
Пароль :

Восстановление пароля Регистрация
Облава / La rafle (Розлин Бош, драма, военный, история, 2010) [HDRip, Профессиональный (многоголосый, закадровый)]
Рейтинг:
(голосов: 1)



[img]{THEME}/images/logopost.png[/img]



Облава / La rafle
«Paris, 16 juillet 1942, 4 heures du matin...»

Год выпуска: 2010
Страна: Франция, Германия, Венгрия
Производство: Alva Films, Canal+ [fr]
Жанр: драма, военный, история

Режиссёр: Розлин Бош / Rose Bosch
В ролях: Жан Рено, Мелани Лоран, Гад Эльмалех, Рафаэль Агоге, Хьюго Левердез, Джозеф Вейсманн, Мэтью Ди Консерто, Ромейн Ди Консерто, Оливер Сайви, Сильви Тестю

Перевод: Профессиональный (многоголосый, закадровый)
Субтитры: Нет

Описание: История трех еврейских семей, основанная на реальных фактах. Главные герои оказываются в самом эпицентре событий, произошедших 16 и 17 июля 1942 года, когда французские полицейские задержали более 12 тысяч евреев и держали их на стадионе Вель-д`Ив. Условия содержания были ужасные, около сотни узников покончили жизнь самоубийством, а каждого, кто пытался бежать, расстреливали на месте. После шести дней в Вель-д`Иве евреев депортировали во французские лагеря Дранси, Бон-ла-Роланд и Питивьер, откуда потом этапировали в немецкие лагеря смерти.


Дата премьеры (мир): 10 марта 2010
Дата премьеры (РФ): 28 июля 2011

Качество: HDRip
Продолжительность: 02:05:10

Формат: AVI
Видео кодек: XviD
Аудио кодек: AC3
Видео: 720x304 (2.35:1), 23.976 fps, XviD 65 ~1459 kbps avg, 0.278 bit/pixel
Аудио: 48 kHz, AC3 Dolby Digital, 2/0 (L,R) ch, 192 kbps
MediaInfo ▼TextGeneral
Complete name : Oblava.2010.P.HDRip.1.45GB.avi
Format : AVI
Format/Info : Audio Video Interleave
File size : 1.45 GiB
Duration : 2h 5mn
Overall bit rate : 1 661 Kbps
Writing application : VirtualDubMod 1.5.10.3 | www.virtualdub-fr.org || (build 2550/release)
Writing library : VirtualDubMod build 2550/release

Video
ID : 0
Format : MPEG-4 Visual
Format profile : Advanced [email protected]
Format settings, BVOP : 1
Format settings, QPel : No
Format settings, GMC : No warppoints
Format settings, Matrix : Custom
Codec ID : XVID
Codec ID/Hint : XviD
Duration : 2h 5mn
Bit rate : 1 459 Kbps
Width : 720 pixels
Height : 304 pixels
Display aspect ratio : 2.35:1
Frame rate : 23.976 fps
Color space : YUV
Chroma subsampling : 4:2:0
Bit depth : 8 bits
Scan type : Progressive
Compression mode : Lossy
Bits/(Pixel*Frame) : 0.278
Stream size : 1.28 GiB (88%)
Writing library : XviD 65

Audio
ID : 1
Format : AC-3
Format/Info : Audio Coding 3
Mode extension : CM (complete main)
Format settings, Endianness : Big
Codec ID : 2000
Duration : 2h 5mn
Bit rate mode : Constant
Bit rate : 192 Kbps
Channel(s) : 2 channels
Channel positions : Front: L R
Sampling rate : 48.0 KHz
Bit depth : 16 bits
Compression mode : Lossy
Stream size : 172 MiB (12%)
Alignment : Split accross interleaves
Interleave, duration : 42 ms (1.00 video frame)
Interleave, preload duration : 500 ms




e4dc6bd25ebf538045770093dcb48c0019d73b93Облава / La rafle (Розлин Бош, драма, военный, история, 2010) [HDRip, Профессиональный (многоголосый, закадровый)] Облава / La rafle (Розлин Бош, драма, военный, история, 2010) [HDRip, Профессиональный (многоголосый, закадровый)] " />

Аплоадер: Админ, дата: 15-10-2013, 21:51, торрент скачан: 359 раз

Понравилась раздача? Посмотрите эти:
  • Откровение / Vedam (Радха Кришна Джагарламуди, Драма, 2010) [HDRip, Професс ...
  • Погнали! / Getaway (Кортни Соломон, Боевик, Криминал, 2013) [HDRip, Професс ...
  • Вирус / Flu (Ким Сон Су, Драма, 2013) [HDTVRip, Любительский (двухголосый з ...
  • Орудие смерти / A-i-deul... (Ли Гю Ман, Триллер, криминал, 2011) [DVDRip, П ...
  • Облава / La rafle (Розлин Бош, Драма, военный, история, 2010) [BDRip, Профе ...
  • Облава / La rafle (Розлин Бош, Драма, военный, история, 2010) [BDRip-AVC, П ...
  • Верное дельце / Une pure affaire (Александр Коффре, Боевик, Комедия, Кримин ...
  • Мои герои / Mes heros (Эрик Беснард, комедия, 2012) [HDRip, Профессиональны ...
  • 42 / 42 (Брайан Хелгеленд, драма, биография, спорт, 2013) [BDRip, Профессио ...
  • МЫ. Верим в любовь / W.E. (Мадонна, Драма, мелодрама, история, 2011) [BDRip ...
  • Облава / La Rafle (Розлин Бош, Драма, военный, история, 2010) [HDRip, Профе ...
  • В хлам / Smashed (Джеймс Понсольдт, Драма, комедия, 2012) [HDRip, Профессио ...
  • Магазин самоубийств / Le magasin des suicides (Патрис Леконт, мультфильм, м ...
  • Суперстар / Superstar (Ксавье Джианноли, Драма, комедия, 2012) [HDRip, Проф ...
  • Простые истины / Straight As (Джеймс Кокс, драма, комедия, 2013) [HDRip, П ...
  • Тюремщик / Screwed (Рег Тревисс / Reg Traviss, Драма, 2011) [DVDRip , Люби ...
  • Доля ангелов / The Angels Share (Кен Лоуч, драма, комедия, 2012) [HDRip, Пр ...
  • Супер циклон / Super Cyclone (Лиз Адамс / Liz Adams, боевик, 2012) [HDRip, ...
  • Захват / Carjacked (Джон Бонито, триллер, 2011)[BDRip, Профессиональный (мн ...
  • Облава / La Rafle (Розлин Бош, драма, военный, история, 2010) [HDRip, Профе ...
  • Романтики / The Romantics (Галт Нидерхоффер, Драма, мелодрама, комедия, 201 ...
  • Супершторм в Сиэтле / Seattle Superstorm (Джейсон Бурк, фантастика, боевик ...
  • Девушки в опасности / Damsels in Distress (Уит Стиллман, драма, мелодрама, ...
  • Глаз шторма / The Eye of the Storm (Фред Скеписи, Драма, 2011) [HDRip, Проф ...
  • Искажение / Skew (Сейв Челенз, ужасы, триллер, 2011) [HDRip, Профессиональн ...
  • Информация
    Посетители, находящиеся в группе Гости, не могут оставлять комментарии к данной публикации.