вход на сайт

Имя пользователя :
Пароль :

Восстановление пароля Регистрация
Индеец-беглец / The Indian Runner (Шон Пенн, драма, 1991) [DVDRip, Профессиональный (двухголосый, закадровый) ТК ТНТ + оригинал]
Рейтинг:
(голосов: 1)



[img]{THEME}/images/logopost.png[/img]



Индеец-беглец / The Indian Runner

Год выпуска: 1991
Страна: США, Япония
Производство: Columbia Pictures Corporation, Mico, NHK, The Mount Film Group, Westmount
Жанр: драма

Режиссёр: Шон Пенн
В ролях: Дэвид Морс, Вигго Мортенсен, Валерия Голино, Патриция Аркетт, Чарльз Бронсон, Сэнди Деннис,, Деннис Хоппер, Джордан Родс, Энцо Росси, Гарри Крюс

Перевод: Профессиональный (двухголосый, закадровый) ТК ТНТ + оригинал
Субтитры: Отсутствуют

Описание:
Фильм показывает историю двух братьев. Один из них, Джой Робертс — мелкий городской полицейский, он всегда спокоен и уравновешен; а другой, Фрэнк Робертс — бывший преступник с большими амбициями, возвращающийся с войны во Вьетнаме, всегда агрессивный и вспыльчивый.


Дополнительно:
Рейтинг MPAA: ▼
Рейтинг R - Лицам до 17 лет обязательно присутствие взрослого



MediaInfo ▼Text
Общее
Полное имя :L:Индеец-беглецИндеец-беглец.avi
Формат :AVI
Размер :1.46 GiB
Продолжительность :02:01:22.008
Общий поток :1 720 Kbps
Программа кодирования :VirtualDubModRus 1.5.10.2 (build 2540/release)

Видео
Идентификатор :0
Формат :MPEG-4 Visual
Профиль формата :Advanced [email protected]
Параметр BVOP формата :1
Параметр Qpel формата :No
Параметр GMC формата :0
Параметр Matrix формата :Default (MPEG)
Идентификатор кодека :XVID
Продолжительность :2h 1mn 22s 0ms
Битрейт :1 449 Kbps
Ширина :720 pixels
Высота :384 pixels
Соотношение сторон :1.875
Частота кадров :25.000 fps
Глубина цвета :8 bits
Подвыборка цветности :4:2:0
Цветовое пространство :YUV
Тип развертки :Progressive
Бит/(Пиксели*Кадры) :0.210
Размер потока :1.23 GiB (84%)
Библиотека кодирования :XviD0047

Аудио #1
Идентификатор :1
Формат :MPEG Audio
Идентификатор кодека :55
Продолжительность :02:01:22.008
Вид битрейта :Constant
Битрейт :128 Kbps
Канал(ы) :2 channels
Частота :48.0 KHz
Метод сжатия :Lossy
Размер потока :111 MiB (7%)

Аудио #2
Идентификатор &n
ab8a3fa2f4618ebfc952fd69b1da137b8c9ee5b8Индеец-беглец / The Indian Runner (Шон Пенн, драма, 1991) [DVDRip, Профессиональный (двухголосый, закадровый) ТК ТНТ + оригинал] Индеец-беглец / The Indian Runner (Шон Пенн, драма, 1991) [DVDRip, Профессиональный (двухголосый, закадровый) ТК ТНТ + оригинал] " />

Аплоадер: Админ, дата: 24-09-2013, 12:02, торрент скачан: 359 раз

Понравилась раздача? Посмотрите эти:
  • Сотворившая чудо / The Miracle Worker (Артур Пенн, драма, биография, 1962) ...
  • Влияние гамма-лучей на бледно-желтые ноготки / The Effect of Gamma Rays on ...
  • Гарри-карманник / Harry in Your Pocket (Брюс Геллер, драма, комедия, кримин ...
  • На тропе войны / War Party (Фрэнк Роддэм, боевик, драма, 1988) [HDTVRip, Пр ...
  • Индеец-беглец / The Indian Runner (Шон Пенн, драма, 1991) [WEB-DLRip, Профе ...
  • Королевская шлюха / La putain du roi (Аксель Корти, драма, мелодрама, прикл ...
  • Однажды на матрасе / Once Upon a Mattress (Кэтлин Маршалл, мюзикл, мелодрам ...
  • Обязательства / The Commitments (Алан Паркер, драма, комедия, музыка, 1991) ...
  • Обнаженная / Naked (Майк Ли, драма, комедия, 1993) [DVDRip, (2х)Профессиона ...
  • Спасите тигра / Save the Tiger (Джон Г. Эвилдсен, драма, 1973) [DVDRip, Про ...
  • Подмена / Switch (Блейк Эдвардс, фэнтези, комедия, криминал, 1991) [DVDRip, ...
  • Тристана / Tristana (Луис Бунюэль, Драма, 1970) [DVDRip, Профессиональный ( ...
  • Квадрофения / Quadrophenia (Фрэнк Роддэм, драма, криминал, музыка, 1979) [H ...
  • Неудачники / Streamers (Роберт Олтмен, Драма, военный, 1983) [DVDRip, Профе ...
  • Бог знает, мистер Аллисон / Heaven Knows, Mr. Allison (Джон Хьюстон, боевик ...
  • Великий Уолдо Пеппер / The Great Waldo Pepper (Джордж Рой Хилл, драма, прик ...
  • Оскорбление / The Offence (Сидни Люмет, триллер, драма, криминал, 1972) [DV ...
  • Конвейер / Blue Collar (Пол Шредер, драма, криминал, 1977) [DVDRip, Професс ...
  • Под покровом небес / The Sheltering Sky (Бернардо Бертолуччи, драма, мелодр ...
  • Сделано в Раю / Made in Heaven (Алан Рудольф, фэнтези, мелодрама, комедия, ...
  • Средиземное море / Mediterraneo (Габриэле Сальваторес, Драма, комедия, воен ...
  • Дьявольское око / Djдvulens цga (Ингмар Бергман, фэнтези, драма, комедия, 1 ...
  • Убей! / Kiru (Кихачи Окамото, боевик, драма, комедия, 1968) [DVDRip, Профес ...
  • Авария / Breakdown (Джонатан Мостоу, боевик, триллер, драма, криминал, дете ...
  • Влюбленный гастролер / Sweet talker (Майкл Дженкинс, Комедия, 1991) [DVDRip ...
  • Информация
    Посетители, находящиеся в группе Гости, не могут оставлять комментарии к данной публикации.