вход на сайт

Имя пользователя :
Пароль :

Восстановление пароля Регистрация
Марафон / De Marathon (Дидрик Копал, комедия, спорт, 2012) [HDRip, Профессиональный (многоголосный, закадровый) [НТВ+]]
Рейтинг:
(голосов: 1)



[img]{THEME}/images/logopost.png[/img]



Марафон / De Marathon
------



Год выпуска: 2012
Страна: Нидерланды
Производство: Eyeworks Film & TV Drama, Inspire Pictures
Жанр: комедия, спорт

Режиссер: Дидрик Копал
В ролях: Стефан Валле, Martin van Waardenberg, Марсель Хенсема, Фрэнк Ламмерс, Мимун Оайясса, Синтия Абма, Драган Бакема, Mahjoub Benmoussa, Manuel Broekman, Джон Буйсман

Перевод: Профессиональный (многоголосный, закадровый) [НТВ+]
Субтитры: Отсутствуют

Описание: Автомастерская, в которой работают четверо любящих пивко, карты и сигареты друзей, под угрозой банкротства. Их осеняет "блесящая" идея найти спонсора и пробежать Роттердамский марафон. Вот только лет им уже всем под пятьдесят. Они полны решимости финишировать и уговаривают быть их тренером хромого эмминранта-египтянина. Для главного героя на кону стоит не только гараж, но и собственная жизнь.



Премьера (мир): 18 октября 2012

МедиаИнфо ▼Text

D:Marathon.2012.P.HDRip.avi
General
Complete name : D:Marathon.2012.P.HDRip.avi
Format : AVI
Format/Info : Audio Video Interleave
File size : 1.46 GiB
Duration : 1h 51mn
Overall bit rate : 1 868 Kbps
Writing application : VirtualDubMod 1.5.10.2 (build 2540/release)
Writing library : VirtualDubMod build 2540/release
Video #0
ID : 0
Format : MPEG-4 Visual
Format profile : Advanced [email protected]
Format settings, BVOP : Yes
Format settings, QPel : No
Format settings, GMC : No warppoints
Format settings, Matrix : Default (MPEG)
Codec ID : XVID
Codec ID/Hint : XviD
Duration : 1h 51mn
Bit rate : 1 667 Kbps
Width : 720 pixels
Height : 304 pixels
Display aspect ratio : 2.35:1
Frame rate : 23.976 fps
Color space : YUV
Chroma subsampling : 4:2:0
Bit depth : 8 bits
Scan type : Progressive
Compression mode : Lossy
Bits/(Pixel*Frame) : 0.318
Stream size : 1.30 GiB (89%)
Writing library : XviD 1.2.1 (UTC 2008-12-04)
Audio #1
ID : 1
Format : AC-3
Format/Info : Audio Coding 3
Mode extension : CM (complete main)
Codec ID : 2000
Duration : 1h 51mn
Bit rate mode : Constant
Bit rate : 192 Kbps
Channel(s) : 2 channels
Channel positions : Front: L R
Sampling rate : 48.0 KHz
Bit depth : 16 bits
Compression mode : Lossy
Stream size : 154 MiB (10%)
Alignment : Split accross interleaves
Interleave, duration : 42 ms (1.00 video frame)
Interleave, preload duration : 500 ms



Качество: HDRip
Продолжительность: 01:37:33

Формат: AVI
Видео кодек: XviD
Аудио кодек: AC3
Видео: 720x304 (2.37:1), 23.976 fps, XviD build 50 ~1666 kbps avg, 0.32 bit/pixel
Аудио: 48 kHz, AC3 Dolby Digital, 2/0 (L,R) ch, ~192.00 kbps avg





6d5b6c50066e945026eb1297d8e889e38d325374Марафон / De Marathon (Дидрик Копал, комедия, спорт, 2012) [HDRip, Профессиональный (многоголосный, закадровый) [НТВ+]] Марафон / De Marathon (Дидрик Копал, комедия, спорт, 2012) [HDRip, Профессиональный (многоголосный, закадровый) [НТВ+]] " />

Аплоадер: Админ, дата: 11-11-2013, 13:07, торрент скачан: 359 раз

Понравилась раздача? Посмотрите эти:
  • Готовые на всё / Workers - Pronti a tutto (Лоренцо Виньоло, Комедия, 2012) ...
  • Погнали! / Getaway (Кортни Соломон, Боевик, Криминал, 2013) [HDRip, Професс ...
  • Марафон / De Marathon (Дидрик Копал, комедия, спорт, 2012) [HDRip, Професси ...
  • Верное дельце / Une pure affaire (Александр Коффре, Боевик, Комедия, Кримин ...
  • Мои герои / Mes heros (Эрик Беснард, комедия, 2012) [HDRip, Профессиональны ...
  • Кодовое имя «Джеронимо» / Seal Team Six: The Raid on Osama Bin Laden (Джон ...
  • Давид и мадам Ансен / David et Madame Hansen (Александр Астье, драма, 2012) ...
  • Мужество / Wymyk (Грег Зглински, драма, 2011) [DVDRip, Любительский (одного ...
  • 42 / 42 (Брайан Хелгеленд, драма, биография, спорт, 2013) [BDRip, Профессио ...
  • Сломленные / Broken (Руфус Норрис, драма, 2012) [HDRip, Профессиональный (м ...
  • Звук моего голоса / Sound of My Voice (Зал Батманглидж, триллер, драма, 201 ...
  • Слепой поворот / Blind Turn (Роберт Орр, Триллер, драма, детектив, 2012) [W ...
  • 23:59 / 23:59 (Гилберт Чан, Ужасы, 2011) [HDRip, Любительский (одноголосый ...
  • Безопасность не гарантируется / Safety Not Guaranteed (Колин Треворроу, фан ...
  • В хлам / Smashed (Джеймс Понсольдт, Драма, комедия, 2012) [HDRip, Профессио ...
  • Плохая актриса / Bad Actress (Роберт Ли Кинг, комедия, 2011) [DVDRip, Профе ...
  • Супер циклон / Super Cyclone (Лиз Адамс / Liz Adams, боевик, 2012) [HDRip, ...
  • Захват / Carjacked (Джон Бонито, триллер, 2011)[BDRip, Профессиональный (мн ...
  • Чемпионат Европы 2012 / Группа D / 1-й тур / Украина - Швеция / Спорт 1 [11 ...
  • Олимпиада 2012 / Футбол / Мужчины / Группа A / 3-й тур / Великобритания - У ...
  • Tank Feat. T.I. & Kris Stephens / Compliments [2012, RnB,Hip-Hop, HDRip]
  • Последний отпуск / Last Holiday (Уэйн Ван, Драма, комедия, приключения, 200 ...
  • Супершторм в Сиэтле / Seattle Superstorm (Джейсон Бурк, фантастика, боевик ...
  • Три балбеса / The Three Stooges (Бобби Фаррелли, Питер Фаррелли, Комедия, 2 ...
  • Девушки в опасности / Damsels in Distress (Уит Стиллман, драма, мелодрама, ...
  • Информация
    Посетители, находящиеся в группе Гости, не могут оставлять комментарии к данной публикации.