вход на сайт

Имя пользователя :
Пароль :

Восстановление пароля Регистрация
Дом покера / The Poker House (Лори Петти, драма, 2008) HDRip-AVC, Авторский (одноголосый) [М.Чадов]
Рейтинг:
(голосов: 1)



[img]{THEME}/images/logopost.png[/img]



Дом покера / The Poker House
«Lust, drugs and violence... no place for a kid»

Год выпуска: 2008
Страна: США
Производство: Poker House, The
Жанр: гангстерская комедия, драма, триллер и т. д.

Режиссёр: Лори Петти
В ролях: Дженнифер Лоуренс, Джейвон Джонсон, Букем Вудбайн, Клои Грэйс Моретц, Мэттью Гердиш, Роберт Гердиш, Кимберли Меллен, Эндрю Ротенберг, Даниэль Кэмпбелл, Селма Блэр, Джейс Райан, Эбби Фален, Натали Уэст, Дэвид Алан Грир, Джеймс Эрл Джонс II, Рич Коменич, Фил Ридарелли, Хашим Браун, Кевин Гудал, Берни Лэндис, Ди’Шон Вашингтон, Адам МакЭвен, Джастин МакЭвен, Дэвид Помпейи, Эллис Фостер, Клаудия Мишель Уоллес, Грег Холлимон

Перевод: Авторский (одноголосый)
Озвучка: [М.Чадов]
Субтитры: отсутствуют

Описание:В этой картине повествуется о тяжелой жизни детей, лишенных родительской опеки, которая вроде и есть, но такая, что лучше бы ее не было совсем. Мать пытается уложить под своего же сутенера старшую дочь, мотивируя это ее юным возрастом и большими долгами. Средняя дочь завела дружбу с местными бомжами и человеком, занимающимися приемом стеклотары. Он разрешает ей утром зайти первой и, в обмен на бутылки, набрать побольше конфет. Младшая проводит время в семье своей подруги, где и без нее уже есть шестеро детей. Но все равно дети и в таких условиях сохраняют чистую голову и добрые сердца. История, основанная на реальных событиях, происходивших с режиссёром Лори Петти в 1976 году.
Качество: HDRip-AVC(720p)
Продолжительность: 01:33:10

Формат: MKV
Главы: нет
Видео кодек: H.264
Аудио кодек: AC3
Видео: 1280 x 720 (16:9), 23.976 fps, AVC (х264) [email protected], ~ 2906 Kbps, 0.132 bit/pixel
Аудио: 48 kHz, AC3 Dolby Digital, 3/2 (L,C,R,l,r) + LFE ch, ~448 kbps avg


MediaInfo ▼
General
Unique ID : 252048643330001500358806099001296314623 (0xBD9ECD8EFE163BF4BA4E10E7A96860FF)
Complete name : F: Dom.pokera.2008.HDRip-AVC.H.264.2,18 Gb.RG.Films.mkv
Format : Matroska
Format version : Version 2
File size : 2.18 GiB
Duration : 1h 33mn
Overall bit rate : 3 350 Kbps
Encoded date : UTC 2013-12-01 11:51:39
Writing application : mkvmerge v5.8.0 (No Sleep / Pillow) built on Sep 2 2012 15:37:04
Writing library : libebml v1.2.3 + libmatroska v1.3.0

Video
ID : 1
Format : AVC
Format/Info : Advanced Video Codec
Format profile : [email protected]
Format settings, CABAC : Yes
Format settings, ReFrames : 8 frames
Codec ID : V_MPEG4/ISO/AVC
Duration : 1h 33mn
Bit rate : 2 906 Kbps
Width : 1 280 pixels
Height : 720 pixels
Display aspect ratio : 16:9
Frame rate mode : Constant
Frame rate : 23.976 fps
Color space : YUV
Chroma subsampling : 4:2:0
Bit depth : 8 bits
Scan type : Progressive
Bits/(Pixel*Frame) : 0.132
Stream size : 1.85 GiB (85%)
Writing library : x264 core 125 r2208 d9d2288
Encoding settings : cabac=1 / ref=8 / deblock=1:-1:-1 / analyse=0x3:0x133 / me=umh / subme=11 / psy=1 / psy_rd=1.00:0.10 / mixed_ref=1 / me_range=24 / chroma_me=1 / trellis=2 / 8x8dct=1 / cqm=0 / deadzone=21,11 / fast_pskip=0 / chroma_qp_offset=-3 / threads=12 / lookahead_threads=2 / sliced_threads=0 / nr=0 / decimate=1 / interlaced=0 / bluray_compat=0 / constrained_intra=0 / bframes=3 / b_pyramid=2 / b_adapt=2 / b_bias=0 / direct=3 / weightb=1 / open_gop=0 / weightp=2 / keyint=250 / keyint_min=23 / scenecut=40 / intra_refresh=0 / rc_lookahead=50 / rc=2pass / mbtree=1 / bitrate=2906 / ratetol=1.0 / qcomp=0.60 / qpmin=0 / qpmax=69 / qpstep=4 / cplxblur=20.0 / qblur=0.5 / ip_ratio=1.40 / aq=1:1.00
Default : Yes
Forced : No

Audio
ID : 2
Format : AC-3
Format/Info : Audio Coding 3
Mode extension : CM (complete main)
Format settings, Endianness : Big
Codec ID : A_AC3
Duration : 1h 33mn
Bit rate mode : Constant
Bit rate : 448 Kbps
Channel(s) : 6 channels
Channel positions : Front: L C R, Side: L R, LFE
Sampling rate : 48.0 KHz
Bit depth : 16 bits
Compression mode : Lossy
Stream size : 299 MiB (13%)
Default : Yes
Forced : No


7cfb2a1e909f121c01dedb42dbdf1bd2a9e044c5Дом покера / The Poker House (Лори Петти, драма, 2008) HDRip-AVC, Авторский (одноголосый) [М.Чадов] Дом покера / The Poker House (Лори Петти, драма, 2008) HDRip-AVC, Авторский (одноголосый) [М.Чадов] " />

Аплоадер: Админ, дата: 1-12-2013, 23:13, торрент скачан: 359 раз

Понравилась раздача? Посмотрите эти:
  • FLO / NRG [2012, Pop, Dance, MasterRip]
  • Eminem / Rap God [2013, Rap, HDRip]
  • Дом покера / The Poker House (Лори Петти, драма, 2008) [HDRip, Авторский (о ...
  • Властелин любви / The Look of Love (Майкл Уинтерботтом, драма, комедия, био ...
  • Зловещие мертвецы 2 / Evil Dead II (Сэм Рэйми, Ужасы, фэнтези, 1987) [HDRip ...
  • UFC The Ultimate 100 Knockouts - PPV [MMA,2013, HDTVRip 720p]
  • UFC - Best Of 2012 Year In Review[MMA,2013, BDRip 540p]
  • Rome 2013 / Финал / Рафаэль Надаль - Роджер Федерер / Rafael Nadal - Roger ...
  • VA / 2013 MTV Movie Awards [2013, Церемония награждения, HDRip]
  • Водитель / The Driver (Уолтер Хилл, Боевик, триллер, драма, криминал, 1978) ...
  • Муви 43 / Movie 43 (Стивен Брилл, Питер Фаррелли, Элизабет БэнксСтивен, ком ...
  • Напряги Извилины / Get Smart (Питер Сигал, Комедия, боевик, приключения ...
  • Пятница 13-е / Friday the 13th (Шон С. Каннингэм, ужасы, триллер, детектив, ...
  • Ворон / The Raven (Джеймс МакТиг, Триллер, детектив, 2012) [BDRip 720p, Дуб ...
  • Лига Чемпионов 2011-12 / 1/2 финала / Ответный матч / Барселона (Испания) - ...
  • Футбольный клуб / Чемпионат Европы 2012 / НТВ+ [Футбол, 08.06.2012, HDTVRip ...
  • Чемпионат Европы 2012 / 1/4 финала / Чехия - Португалия / Спорт 1 HD [Футбо ...
  • Чемпионат Европы 2012 / 1/2 финала / Португалия - Испания / Спорт 1 HD [Фу ...
  • Чемпионат Европы 2012 / 1/2 финала / Германия - Италия / Спорт 1 HD [Футбо ...
  • Все голы Евро-2012 [Футбол,2012, HDTVRip]
  • Chelsea - Season Review 2011-12 / Челси - Обзор Сезона 2011-12 [ Футбол, 20 ...
  • Mylene Farmer / Du Temps [2011, Pop, HDTVRip]
  • Mylene Farmer / Bleu Noir [2011, Pop, HDTVRip]
  • PBS: Природа – Гималаи / PBS: Nature – The Himalayas (Крис Морган, Докумен ...
  • Madonna / Girl Gone Wild [2012, Pop, HDTV]
  • Информация
    Посетители, находящиеся в группе Гости, не могут оставлять комментарии к данной публикации.