вход на сайт

Имя пользователя :
Пароль :

Восстановление пароля Регистрация
Зверофабрика / Animal Factory (Стив Бушеми, драма, криминал, 2000) [DVDRip, Профессиональный (многоголосый закадровый)]
Рейтинг:
(голосов: 1)



[img]{THEME}/images/logopost.png[/img]



• Зверофабрика / Animal Factory •
Год выпуска: 2000
Страна: США
Производство: Animal Productions LLC
Жанр: драма, криминал

Режиссёр: Стив Бушеми
В ролях: Уиллем Дефо, Эдвард Ферлонг, Дэнни Трэхо, Марк Бун Джуниор, Сеймур Кэссел, Микки Рурк, Том Арнольд, Джон Херд, Крис Бауэр, Рокетс Редглэр, Джейк Ла Боц, Марк Энгелхардт, Эдвард Банкер, Виктор Пэйгэн, Эрнест Харден-мл., Афемо Омилами, Майкл Бушеми, Дж. С. Куинн, Стивен Рандаццо, Марк Уэббер, Джонни Спэниш, Винсент Лареска, Стив Бушеми, Брайан Энтони Уилсон, Джеймс Мартин Келли, Кристофер Лонг, Тони Девон, Майкл Гриффит

Перевод: Профессиональный (многоголосый закадровый)
Субтитры: Отсутствуют

Описание: За воротами тюрьмы нормальная жизнь заканчивается. Любой несчастный вступивший в стены этого жуткого старого здания обречен жить по чудовищным, волчьим законам, от которых законопослушный человек придет в неописуемый ужас. Здесь татуированные рецидивисты режут и калечат друг друга, устраивают кровопролитные разборки, и «берут в жены» слабаков, которые не могут за себя постоять.

Здесь — твоя жизнь больше уже не стоит ничего… Именно в эту тюрьму и попадает герой картины, молодой человек по имени Рон Деккер. Если бы не счастливое стечение обстоятельств, то Деккер не «протянул» бы здесь и месяца. Но Рону повезло: его взял под защиту местный «авторитет» Эрл Коупен — уважаемый «вор в законе», человек опытный и рассудительный. Возникает удивительная дружба между «прожженным» уголовником и юношей, попавшим за решетку по воле случая. И вот эта странная парочка решает совершить побег…


MediaInfo ▼
TextGeneral
Complete name : C:verofabrika.2000.DVDRip.avi
Format : AVI
Format/Info : Audio Video Interleave
File size : 700 MiB
Duration : 1h 30mn
Overall bit rate : 1 080 Kbps
Movie name : SENATORiNFO-TEAM
Director : SENATOR
Writing application : VirtualDubMod 1.5.4.1 (build 2178/release)
Video #0
ID : 0
Format : MPEG-4 Visual
Format profile : Advanced [email protected]
Format settings, BVOP : 1
Format settings, QPel : No
Format settings, GMC : No warppoints
Format settings, Matrix : Custom
Codec ID : XVID
Codec ID/Hint : XviD
Duration : 1h 30mn
Bit rate : 945 Kbps
Width : 640 pixels
Height : 368 pixels
Display aspect ratio : 16:9
Frame rate : 25.000 fps
Color space : YUV
Chroma subsampling : 4:2:0
Bit depth : 8 bits
Scan type : Progressive
Compression mode : Lossy
Bits/(Pixel*Frame) : 0.160
Stream size : 612 MiB (87%)
Writing library : XviD 1.2.0.dev47 (UTC 2006-11-01)
Audio #1
ID : 1
Format : MPEG Audio
Format version : Version 1
Format profile : Layer 3
Mode : Joint stereo
Mode extension : MS Stereo
Codec ID : 55
Codec ID/Hint : MP3
Duration : 1h 30mn
Bit rate mode : Constant
Bit rate : 128 Kbps
Channel(s) : 2 channels
Sampling rate : 48.0 KHz
Compression mode : Lossy
Stream size : 83.0 MiB (12%)
Alignment : Aligned on interleaves
Interleave, duration : 80 ms (2.00 video frames)
&
e58334e277fe1593c30a734184338551ce520fecЗверофабрика / Animal Factory (Стив Бушеми, драма, криминал, 2000) [DVDRip, Профессиональный (многоголосый закадровый)] Зверофабрика / Animal Factory (Стив Бушеми, драма, криминал, 2000) [DVDRip, Профессиональный (многоголосый закадровый)] " />

Аплоадер: Админ, дата: 6-12-2012, 20:51, торрент скачан: 359 раз

Понравилась раздача? Посмотрите эти:
  • Погнали! / Getaway (Кортни Соломон, Боевик, Криминал, 2013) [HDRip, Професс ...
  • Погнали! / Getaway (Кортни Соломон, Боевик,Криминал, 2013) [HDRip, Професси ...
  • Вирус / Flu (Ким Сон Су, Драма, 2013) [HDTVRip, Любительский (двухголосый з ...
  • Орудие смерти / A-i-deul... (Ли Гю Ман, Триллер, криминал, 2011) [DVDRip, П ...
  • Мои герои / Mes heros (Эрик Беснард, комедия, 2012) [HDRip, Профессиональны ...
  • Посылка / The Package (Джесси Джонсон, боевик, 2013) [HDRip, Профессиональн ...
  • Мужество / Wymyk (Грег Зглински, драма, 2011) [DVDRip, Любительский (одного ...
  • 42 / 42 (Брайан Хелгеленд, драма, биография, спорт, 2013) [BDRip, Профессио ...
  • Решала (Роман Асхаев, Драма,Криминал, 2012) [WEB-DLRip, Не требуется]
  • Альбатрос / Albatross (Найал МакКормик, Драма, 2011) [DVDRip, Профессиональ ...
  • Лучший стрелок / Top Gun (Тони Скотт, боевик, драма, мелодрама, 1986) [BDRi ...
  • Плохая актриса / Bad Actress (Роберт Ли Кинг, комедия, 2011) [DVDRip, Профе ...
  • Захват / Carjacked (Джон Бонито, триллер, 2011)[BDRip, Профессиональный (мн ...
  • Молодежный чемпионат мира 2012 (U-20). Четвертьфинал: Россия - Чехия [02.01 ...
  • Чемпионат Европы 2012 / Группа C / 1-й тур / Ирландия — Хорватия / ТРК Футб ...
  • Дом вверх дном / Bringing Down the House (Адам Шенкман, комедия, 2003) [BDR ...
  • Замёрзший мир / 2012: Ice Age (Трэвис Форт, фантастика, боевик, 2011) [HDRi ...
  • Супершторм в Сиэтле / Seattle Superstorm (Джейсон Бурк, фантастика, боевик ...
  • Все матчи Dream Team на Олимпийских играх в Барселоне [1992 г., Баскетбол, ...
  • Товарищеский матч 2012 / АмаЗулу (ЮАР) - Манчестер Юнайтед (Англия) / MU TV ...
  • Олимпиада 2012 / Женщины, Мужчины / Плавание / Квалификация / НТВ+ [30.07.2 ...
  • Интервью / Interview (Стив Бушеми, триллер, драма, музыка, 2006) [DVDRip, П ...
  • Робинзон Крузо / Robinson Crusoe (Род Харди, Джордж Миллер, драма, приключе ...
  • Камень судьбы / Stone of destiny (Чарльз Мартин Смит, драма, комедия, крими ...
  • Крузо / Crusoe (Калеб Дешанель, Драма, 1988) [HDTVRip, Профессиональный (дв ...
  • Информация
    Посетители, находящиеся в группе Гости, не могут оставлять комментарии к данной публикации.