вход на сайт

Имя пользователя :
Пароль :

Восстановление пароля Регистрация
Ведьма войны / Rebelle (Ким Нгуйен, Драма, военный, 2012) [DVDRip, Профессиональный (двухголосый, закадровый) + Оригинал]
Рейтинг:
(голосов: 1)



[img]{THEME}/images/logopost.png[/img]



Ведьма войны / Rebelle

Год выпуска: 2012
Страна: Канада
Производство: Item 7, Shen Studio
Жанр: Драма, Военный

Режиссёр: Ким Нгуйен
В ролях:Рашель Мванза, Ален Лино Мик Эли Бастьен, Серж Каньинда, Мизинга Мвинга, Ральф Проспер, Жан Кабуйя, Дайан Увамахоро, Жупитер Боконжи, Старлет Матата, Алекс Херабо

Перевод: Профессиональный (двухголосый, закадровый) (студия Elrom) + Оригинал (французский)
Субтитры: Нет

Описание: Гражданская война в Африке. После того, как родную деревню Комоны поджигают солдаты повстанческой армии, а её родители погибают, 12-летняя девочка становится ребёнком-воином. Командир отряда, в котором оказывается Комона, не только заставляет ребёнка учиться пользоваться оружием, но и ублажать его собственные сексуальных прихоти. Комона влюбляется в светловолосого мальчика, немногим старшего её самой, и вместе с ним сбегает из отряда. Вместе они направляются в родную деревню Комоны, желающей похоронить тела своих родителей — иначе их души вечно будут блуждать по пустыням Африки…



Качество: DVDRip | Сэмпл
Продолжительность: 01:30:09

Формат: AVI
Видео кодек: XviD
Аудио кодек: AС3
Видео: 720x384(1.85:1), 23.976 fps, XviD ~ 1 906 kbs avg, 0.287 bit/p
Аудио #1: 48.0 KHz, AC3 Dolby Digital, 2 ch, ~192 Kbps - DVO (студия Elrom)
Аудио #2: 48.0 KHz, AC3 Dolby Digital, 2 ch, ~192 Kbps - (Fre)

Дата премьеры (мир): 17 февраля 2012

"Media Info" ▼
TextGeneral
Format : AVI
Format/Info : Audio Video Interleave
File size : 1.45 GiB
Duration : 1h 30mn
Overall bit rate : 2 304 Kbps
Movie name : Vedma.Vojny.2012
Original source form/Distributed by : DVD5
Genre : War Drama
Copyright : 25KADR
Comment : DVO (Elrom studio)
Video #0
ID : 0
Format : MPEG-4 Visual
Format profile : Advanced [email protected]
Format settings, BVOP : 2
Format settings, QPel : No
Format settings, GMC : No warppoints
Format settings, Matrix : Default (H.263)
Codec ID : XVID
Codec ID/Hint : XviD
Duration : 1h 30mn
Bit rate : 1 906 Kbps
Width : 720 pixels
Height : 384 pixels
Display aspect ratio : 3:2
Original display aspect ratio : 1.85:1
Frame rate : 23.976 fps
Color space : YUV
Chroma subsampling : 4:2:0
Bit depth : 8 bits
Scan type : Progressive
Compression mode : Lossy
Bits/(Pixel*Frame) : 0.287
Stream size : 1.20 GiB (83%)
Writing library : XviD 64
Audio #1
ID : 1
Format : AC-3
Format/Info : Audio Coding 3
Mode extension : CM (complete main)
Format settings, Endianness : Big
Codec ID : 2000
Duration : 1h 30mn
Bit rate mode : Constant
Bit rate : 192 Kbps
Channel(s) : 2 channels
Channel positions : Front: L R
Sampling rate : 48.0 KHz
Bit depth : 16 bits
Compression mode : Lossy
Stream size : 124 MiB (8%)
Alignment : Split accross interleaves
Interleave, duration : 42 ms (1.00 video frame)
Interleave, preload duration : 500 ms
Language : 1.
b53d271814db2fddbfe0b83406b7bf5b475be7fbВедьма войны / Rebelle (Ким Нгуйен, Драма, военный, 2012) [DVDRip, Профессиональный (двухголосый, закадровый) + Оригинал] Ведьма войны / Rebelle (Ким Нгуйен, Драма, военный, 2012) [DVDRip, Профессиональный (двухголосый, закадровый) + Оригинал] " />

Аплоадер: Админ, дата: 4-12-2012, 12:12, торрент скачан: 359 раз

Понравилась раздача? Посмотрите эти:
  • Вирус / Flu (Ким Сон Су, Драма, 2013) [HDTVRip, Любительский (двухголосый з ...
  • Верное дельце / Une pure affaire (Александр Коффре, Боевик, Комедия, Кримин ...
  • Мои герои / Mes heros (Эрик Беснард, комедия, 2012) [HDRip, Профессиональны ...
  • Мужество / Wymyk (Грег Зглински, драма, 2011) [DVDRip, Любительский (одного ...
  • Альбатрос / Albatross (Найал МакКормик, Драма, 2011) [DVDRip, Профессиональ ...
  • Звук моего голоса / Sound of My Voice (Зал Батманглидж, триллер, драма, 201 ...
  • Слепой поворот / Blind Turn (Роберт Орр, Триллер, драма, детектив, 2012) [W ...
  • 23:59 / 23:59 (Гилберт Чан, Ужасы, 2011) [HDRip, Любительский (одноголосый ...
  • В хлам / Smashed (Джеймс Понсольдт, Драма, комедия, 2012) [HDRip, Профессио ...
  • Ведьма войны / Rebelle (Ким Нгуйен, Драма, военный, 2012) [WEBDL 720p, Проф ...
  • Псы войны / The Dogs of War (Джон Ирвин, боевик, драма, приключения, военны ...
  • Плохая актриса / Bad Actress (Роберт Ли Кинг, комедия, 2011) [DVDRip, Профе ...
  • Супер циклон / Super Cyclone (Лиз Адамс / Liz Adams, боевик, 2012) [HDRip, ...
  • Захват / Carjacked (Джон Бонито, триллер, 2011)[BDRip, Профессиональный (мн ...
  • Чемпионат Европы 2012 / Группа C / 1-й тур / Ирландия — Хорватия / ТРК Футб ...
  • Tank Feat. T.I. & Kris Stephens / Compliments [2012, RnB,Hip-Hop, HDRip]
  • Влюбленные (Валерий Бебко, Комедия, 2011) [DVDRip, Оригинал]
  • Похищение / Rapt / Lösegeld (Люка Бельво, триллер, 2009) [HDRip, профессион ...
  • Трус / Faintheart (Вито Рокко, Комедия, 2008) [BDRip, Профессиональный (дву ...
  • Супершторм в Сиэтле / Seattle Superstorm (Джейсон Бурк, фантастика, боевик ...
  • Олимпиада 2012 / Женщины, Мужчины / Плавание / Квалификация / НТВ+ [30.07.2 ...
  • За гранью / Beyond (Йозеф Руснак, триллер, 2012) [HDRip, Профессиональный ...
  • Табу / Tabu (Мигель Гомеш, Драма, мелодрама, 2012) [DVDRip, Профессиональны ...
  • Ведьма войны / Rebelle (Ким Нгуйен, Драма, 2012) [DVDRip, Профессиональный ...
  • Крузо / Crusoe (Калеб Дешанель, Драма, 1988) [HDTVRip, Профессиональный (дв ...
  • Информация
    Посетители, находящиеся в группе Гости, не могут оставлять комментарии к данной публикации.