вход на сайт

Имя пользователя :
Пароль :

Восстановление пароля Регистрация
Музыка внутри / Music Within (Стивен Савалич, Драма, мелодрама, комедия, военный, биография, музыка, 2007) [DVDRip, Профессиональный (двухголосый, закадровый) ]
Рейтинг:
(голосов: 1)



[img]{THEME}/images/logopost.png[/img]



♠ Музыка внутри / Music Within ♠
♠Год выпуска: 2007
♠Страна: США
♠Производство: Articulus Entertainment и Quorum Entertainment
♠Жанр: Драма, мелодрама, комедия, военный, биография, музыка
♠Режиссёр: Стивен Савалич
♠В ролях: Клинт Юнг, Мелисса Джордж, Мэрион Росс, Ребекка Де Морнэй, Ридж Кэнайп, Пол Майкл, Джон Ливингстон, Рон Ливингстон и другие.
♠Перевод:Профессиональный (двухголосый, закадровый)
♠Субтитры: Отсутствуют

♠Описание: Правдивая история Ричарда Пиментэля (Рон Ливингстон), блестящего общественного спикера с трудным прошлым, который возвращается из Вьетнама потеряв слух, и находит для себя новую цель — борьбу за права ветеранов и инвалидов.

♠Рейтинг:♠Качество: DVDRip
♠Продолжительность: 01:33:34 час.

♠Формат: AVI
♠Видео кодек: XviD
♠Аудио кодек: AC3
♠Видео: 688x368 (1.87:1), 23.976 fps, XviD MPEG-4 ~1630 kbps avg, 0.27 bit/pixel
♠Аудио: 48 kHz, AC3 Dolby Digital, 3/2 (L,C,R,l,r) + LFE ch, ~448.00 kbps avg DVO

♠Премьера: 5 января 2007

MediaInfo ▼
Text
Общее
Полное имя : Музыка внутри. 2007.DVDRip..avi
Формат : AVI
Формат/Информация : Audio Video Interleave
Размер файла : 1,11 Гбайт
Продолжительность : 1 ч. 33 м. 34 c.
Общий поток : 1691 Кбит/сек
Программа кодирования : VirtualDubMod 1.5.10.2 (build 2542/release)
Библиотека кодирования : VirtualDubMod build 2542/release

Видео
Идентификатор : 0
Формат : MPEG-4 Visual
Профиль формата : Advanced [email protected]
Параметр BVOP формата : 1
Параметр QPel формата : Нет
Параметр GMC формата : Без точки перехода
Параметр матрицы формата : Default (H.263)
Режим смешивания : Сжатый битовый поток
Идентификатор кодека : XVID
Идентификатор кодека/Подсказка : XviD
Продолжительность : 1 ч. 33 м.
Битрейт : 1630 Кбит/сек
Ширина : 688 пикселей
Высота : 368 пикселей
Соотношение сторон : 1,85:1
Частота кадров : 23,976 кадра/сек
Цветовое пространство : YUV
Субдискретизация насыщенности : 4:2:0
Битовая глубина : 8 бит
Тип развёртки : Прогрессивная
Метод сжатия : С потерями
Бит/(Пиксели*Кадры) : 0.192
Размер потока : 781 Мбайт (69%)
Библиотека кодирования : XviD 1.1.0 (UTC 2005-11-22)

Аудио
Идентификатор : 1
Формат : AC-3
Формат/Информация : Audio Coding 3
Расширение режима : CM (complete main)
Параметр Endianness формата : Big
Идентификатор кодека : 2000
Продолжительность : 1 ч. 33 м. 34 c.
Вид битрейта : Постоянный
Битрейт : 448 Кбит/сек
Каналы : 6 каналов
Расположение каналов : Front: L C R, Side: L R, LFE
Частота : 48,0 КГц
Битовая глубина : 16 бит
Метод сжатия : С потерями
Размер потока : 300 Мбайт (26%)
Выравнивание : Разделение по промежуткам


685883b733539fadd8237e50e3d6ad66023b5596Музыка внутри / Music Within (Стивен Савалич, Драма, мелодрама, комедия, военный, биография, музыка, 2007) [DVDRip, Профессиональный (двухголосый, закадровый) ] Музыка внутри / Music Within (Стивен Савалич, Драма, мелодрама, комедия, военный, биография, музыка, 2007) [DVDRip, Профессиональный (двухголосый, закадровый) ] " />

Аплоадер: Админ, дата: 1-12-2012, 15:25, торрент скачан: 359 раз

Понравилась раздача? Посмотрите эти:
  • Бойфренд из будущего / About Time (Ричард Кёртис, Фантастика, драма, комеди ...
  • Операция "Белвис" / Zero Dark Dirty (Лекс Львовски, Джо Валсер, мелодрама, ...
  • Список Шиндлера / Schindlers List (Стивен Спилберг, Драма, военный, биограф ...
  • Даю год / I Give It a Year (Дэн Мазер, Мелодрама, комедия, 2013) [DVDRip, Д ...
  • Марсианская одиссея / Stranded (Мария Лидон, Фантастика, драма, 2001) [DVDR ...
  • Двенадцать бедствий на Рождество / The 12 Disasters of Christmas (Стивен Р. ...
  • Легенда о МорДу / The Legend of MorDu (Брайан Ларсен, Короткометражный, ска ...
  • Отбой / Taps (Харольд Беккер, Драма, 1981) [DVDRip, Профессиональный (много ...
  • Кажется, я люблю свою жену / I Think I Love My Wife (Крис Рок, Драма, мелод ...
  • Кажется, я люблю свою жену / I Think I Love My Wife (Крис Рок, Драма, мелод ...
  • Темный сахар / Brown Sugar (Рик Фамуйива, Драма, мелодрама, комедия, музыка ...
  • Бог любви / God of Love (Люк Мэзени, Короткометражка, фэнтези, комедия, мел ...
  • Заместитель / Il supplente (Андреа Жублин, Короткометражка, комедия, 2007) ...
  • Идеальный Голос / Pitch Perfect (Джейсон Мур, Комедия, музыка, 2012) [HDRip ...
  • Покорить высоту / Take It to the Limit (Сэм Кит / Sam Kieth, семейный, 2000 ...
  • А что насчет тебя? / How About You (Энтони Бирн, Драма, комедия, 2007) [DVD ...
  • Боец из трущоб / Gutter King (Кейт Алан Моррис / Keith Alan Morris, боевик, ...
  • Кошмар / Nightmare / Qing Yan (Херман Яу, ужасы, триллер, 2012) [DVDRip, Лю ...
  • Детский душ / Baby Shower (Pablo Illanes, Ужасы, 2011) [DVDRip, Любительски ...
  • Гениальный папа / Father of Invention (Трент Купер, Драма, комедия, 2010) [ ...
  • Schiller / Mitternacht [2010, Ambient, WebRip]
  • Шаг вперед 4 / Step Up Revolution (Скотт Спир, Драма, мелодрама, музыка, 20 ...
  • Шаг вперед 4 / Step Up Revolution (Скотт Спир, Драма, мелодрама, музыка, 20 ...
  • Человек из банки (Иван Кульнев, Комедия, 2012) [DVDRip, Не требуется]
  • Сдохни, Джон Такер / John Tucker Must Die (Бетти Томас, мелодрама, комедия, ...
  • Информация
    Посетители, находящиеся в группе Гости, не могут оставлять комментарии к данной публикации.