вход на сайт

Имя пользователя :
Пароль :

Восстановление пароля Регистрация
Камень судьбы / Stone of destiny (Чарльз Мартин Смит, драма, комедия, криминал, приключения, 2008) [HDTVRip, Профессиональный (многоголосый закадровый)]
Рейтинг:
(голосов: 1)



[img]{THEME}/images/logopost.png[/img]



Камень судьбы / Stone of destiny

Год выпуска: 2008
Страна: Канада, Великобритания
Производство: Alliance Films, Canadian Film or Video Production Tax Credit (CPTC), Chum Television, Glasgow Film Office, Infinity Features
Жанр: драма, комедия, криминал, приключения

Режиссёр: Чарльз Мартин Смит
В ролях: Чарли Кокс, Кейт Мара, Билли Бойд, Роберт Карлайл, Киарон Келли, Рэб Аффлек, Джиллиан, Эйткен, Джанин Бэллентайн, Росс Бенни, Джульет Кадзоу, Алекс Дональд

Перевод: Профессиональный (многоголосый закадровый)
Субтитры: Отсутствуют

Описание:
История убеждённого шотландского патриота Йена Хэмилтона, который в 1950 году возродил гордость Шотландии своим невероятным и сумасбродным рейдом в самое сердце Англии, чтобы вернуть на родину захваченный 650 лет назад англичанами Камень судьбы.
MediaInfo ▼
General
Complete name : C:UsersDiasDesktopКамень судьбы.avi
Format : AVI
Format/Info : Audio Video Interleave
File size : 1.46 GiB
Duration : 1h 32mn
Overall bit rate : 2 269 Kbps
Movie name : Камень судьбы
Director : Rip by Ledy_X
Writing application : VirtualDubMod 1.5.10.3 | www.virtualdub-fr.org || (build 2550/release)
Copyright : Edich2
Comment : RuTracker.org
Video #0
ID : 0
Format : MPEG-4 Visual
Format profile : Advanced [email protected]
Format settings, BVOP : 1
Format settings, QPel : No
Format settings, GMC : No warppoints
Format settings, Matrix : Custom
Codec ID : DX50
Codec ID/Hint : DivX 5
Duration : 1h 32mn
Bit rate : 2 068 Kbps
Width : 720 pixels
Height : 400 pixels
Display aspect ratio : 16:9
Frame rate : 25.000 fps
Color space : YUV
Chroma subsampling : 4:2:0
Bit depth : 8 bits
Scan type : Progressive
Compression mode : Lossy
Bits/(Pixel*Frame) : 0.287
Stream size : 1.33 GiB (91%)
Writing library : XviD 1.2.1 (UTC 2008-12-04)
Audio #1
ID : 1
Format : MPEG Audio
Format version : Version 1
Format profile : Layer 3
Codec ID : 55
Codec ID/Hint : MP3
Duration : 1h 32mn
Bit rate mode : Constant
Bit rate : 192 Kbps
Channel(s) : 2 channels
Sampling rate : 48.0 KHz
Compression mode : Lossy
Stream size : 127 MiB (8%)
Alignment : Aligned on interleaves
Interleave, duration : 40 ms (1.00 video frame)
Interlea
60bfca8c93d0ec365d37c3a94f5404553b5c15ddКамень судьбы / Stone of destiny (Чарльз Мартин Смит, драма, комедия, криминал, приключения, 2008) [HDTVRip, Профессиональный (многоголосый закадровый)] Камень судьбы / Stone of destiny (Чарльз Мартин Смит, драма, комедия, криминал, приключения, 2008) [HDTVRip, Профессиональный (многоголосый закадровый)] " />

Аплоадер: Админ, дата: 29-11-2012, 16:32, торрент скачан: 359 раз

Понравилась раздача? Посмотрите эти:
  • Непристойная комедия / InAPPropriate Comedy (Винс Оффер, комедия, 2013) [DV ...
  • Погнали! / Getaway (Кортни Соломон, Боевик,Криминал, 2013) [HDRip, Професси ...
  • Орудие смерти / A-i-deul... (Ли Гю Ман, Триллер, криминал, 2011) [DVDRip, П ...
  • Мэрайа Мунди и шкатулка Мидаса / The Adventurer: The Curse of the Midas Box ...
  • Решала (Роман Асхаев, Драма,Криминал, 2012) [WEB-DLRip, Не требуется]
  • Всадник / The Horseman (Стивен Кастриссиос, Триллер, Криминал, 2008) [HDRi ...
  • Укушенный (Полная версия) / Bitten (Unrated) (Харви Глейзер , Ужасы, комеди ...
  • Тернер и Хуч / Turner & Hooch (Роджер Споттисвуд, Триллер, Драма, Комедия, ...
  • Последний из достойнейших / The Last of the Finest (Джон Маккензи, Боевик, ...
  • Выбор судьбы / Медиатор судьбы / Tenacious D in The Pick of Destiny (Лайам ...
  • Без всего / Sin ella (Джордже Колон, Мелодрама, 2010) [HDTVRip , Профессион ...
  • Эрик Викинг / Erik the Viking (Терри Джонс, фэнтези, комедия, приключения, ...
  • Джефф, живущий дома / Jeff, Who Lives at Home (Джей Дюпласс, Марк Дюпласс, ...
  • Мой парень – псих / Silver Linings Playbook (Дэвид О. Расселл, Драма, мелод ...
  • Папаша / Starbuck (Кен Скотт, Драма, комедия, 2011) [BDRip, Профессиональны ...
  • Индиана Джонс и Храм Судьбы / Indiana Jones and the Temple of Doom (Стивен ...
  • Цвет волшебства / The Colour of Magic /(Вадим Жан, Фэнтези, комедия, приклю ...
  • Романтики / The Romantics (Галт Нидерхоффер, Драма, мелодрама, комедия, 201 ...
  • Желтый платочек счастья / The Yellow Handkerchief (Юдайан Прасад, мелодрама ...
  • Пропавшие / Gone (Ринган Ледвидж, ужасы, триллер, драма, 2007) [DVDRip, Пр ...
  • Встреча со злом / Абсолютное зло / Meeting Evil (Крис Фишер, триллер, драма ...
  • Ничего, кроме правды / Nothing But the Truth (Род Лури, триллер, драма, 200 ...
  • Робинзон Крузо / Robinson Crusoe (Род Харди, Джордж Миллер, драма, приключе ...
  • Из джунглей в джунгли / Jungle 2 Jungle (Джон Пасквин, комедия, приключения ...
  • Крузо / Crusoe (Калеб Дешанель, Драма, 1988) [HDTVRip, Профессиональный (дв ...
  • Информация
    Посетители, находящиеся в группе Гости, не могут оставлять комментарии к данной публикации.