вход на сайт

Имя пользователя :
Пароль :

Восстановление пароля Регистрация
Последний палач / The Last Hangman (Адриан Шерголд, Драма, 2005) [HDRip, Профессиональный (многоголосый закадровый)]
Рейтинг:
(голосов: 1)



[img]{THEME}/images/logopost.png[/img]



Последний палач / The Last Hangman

Год выпуска: 2005
Страна: Великобритания
Производство: Granada Television
Жанр: Драма

Режиссёр: Адриан Шерголд
В ролях: Тимоти Сполл, Джульет Стивенсон, Эдди Марсан, Саймон Армстронг, Энн Белл, Николас Блейн, Клайв Брант, Каван Клеркин, Джеймс Корден, Мари Критчли

Перевод: Профессиональный (многоголосый закадровый)
Субтитры: Отсутствуют

Описание: Реальная история жизни Альберта Пьеррпойнта, знаменитого британского палача, пошедшего по стопам своего отца и дяди и ставшего самым печально известным в этой профессии. Казнь — грязная работа, но кто-то же должен ее выполнять?!

После работы Пьеррпойнт переодевается и становится ничем не примечательным обывателем, спешащим домой к жене или в паб. Единственное, чего он желает, так это достигнуть в своем деле совершенства… Что происходит в душе у человека, чья работа убивать людей? Удивительно, но Альберт Пьррпойнт мечтал о такой судьбе…


MediaInfo ▼
General
Complete name : C:poslednii_palach_745.avi
Format : AVI
Format/Info : Audio Video Interleave
File size : 745 MiB
Duration : 1h 35mn
Overall bit rate : 1 096 Kbps
Director : bm11
Writing application : VirtualDubMod 1.5.10.2 (build 2540/release)
Video #0
ID : 0
Format : MPEG-4 Visual
Format profile : Advanced
Format settings, BVOP : 2
Format settings, QPel : No
Format settings, GMC : No warppoints
Format settings, Matrix : Custom
Codec ID : XVID
Codec ID/Hint : XviD
Duration : 1h 35mn
Bit rate : 959 Kbps
Width : 688 pixels
Height : 384 pixels
Display aspect ratio : 16:9
Frame rate : 24.000 fps
Color space : YUV
Chroma subsampling : 4:2:0
Bit depth : 8 bits
Scan type : Progressive
Compression mode : Lossy
Bits/(Pixel*Frame) : 0.151
Stream size : 651 MiB (87%)
Writing library : XviD 65
Audio #1
ID : 1
Format : MPEG Audio
Format version : Version 1
Format profile : Layer 3
Mode : Joint stereo
Mode extension : MS Stereo
Codec ID : 55
Codec ID/Hint : MP3
Duration : 1h 35mn
Bit rate mode : Constant
Bit rate : 128 Kbps
Channel(s) : 2 channels
Sampling rate : 48.0 KHz
Compression mode : Lossy
Stream size : 87.0 MiB (12%)
Alignment : Aligned on interleaves
Interleave, duratio
f71836cad622c9d182caf153349e5879b8f39b3dПоследний палач / The Last Hangman (Адриан Шерголд, Драма, 2005) [HDRip, Профессиональный (многоголосый закадровый)] Последний палач / The Last Hangman (Адриан Шерголд, Драма, 2005) [HDRip, Профессиональный (многоголосый закадровый)] " />

Аплоадер: Админ, дата: 27-11-2012, 16:37, торрент скачан: 359 раз

Понравилась раздача? Посмотрите эти:
  • Кризисный момент / Crisis Point (Адриан Уиллс, Триллер, 2012) [HDTVRip, Про ...
  • Непристойная комедия / InAPPropriate Comedy (Винс Оффер, комедия, 2013) [DV ...
  • Погнали! / Getaway (Кортни Соломон, Боевик,Криминал, 2013) [HDRip, Професси ...
  • Посылка / The Package (Джесси Джонсон, боевик, 2013) [HDRip, Профессиональн ...
  • Посылка / The Package (Джесси Джонсон, боевик, 2013) [HDRip, Профессиональн ...
  • В хлам / Smashed (Джеймс Понсольдт, Драма, комедия, 2012) [HDRip, Профессио ...
  • Лучший стрелок / Top Gun (Тони Скотт, боевик, драма, мелодрама, 1986) [BDRi ...
  • Доля ангелов / The Angels Share (Кен Лоуч, драма, комедия, 2012) [HDRip, Пр ...
  • Мой парень – псих / Silver Linings Playbook (Дэвид О. Расселл, Драма, мелод ...
  • Мутанты / Mimic (Гильермо дель Торо, ужасы, фантастика, 1997) [HDRip, Профе ...
  • Холодная смесь / Cold Fusion (Иван Митов, боевик, 2010) [HDRip, Профессиона ...
  • Яркая звезда / Bright Star (Джейн Кэмпион / Jane Campion) [2009, Биографиче ...
  • Вскрытие инопланетянина/Alien Autopsy (Джонни Кэмпбелл, Комедия, фантастика ...
  • Последний отпуск / Last Holiday (Уэйн Ван, Драма, комедия, приключения, 200 ...
  • Романтики / The Romantics (Галт Нидерхоффер, Драма, мелодрама, комедия, 201 ...
  • Полусвет / Half Light (Крэйг Розенберг, Ужасы, триллер, драма, детектив, 20 ...
  • Замёрзший мир / 2012: Ice Age (Трэвис Форт, фантастика, боевик, 2011) [HDRi ...
  • Три балбеса / The Three Stooges (Бобби Фаррелли, Питер Фаррелли, Комедия, 2 ...
  • Девушки в опасности / Damsels in Distress (Уит Стиллман, драма, мелодрама, ...
  • Присутствие великолепия / Magnifica presenza (Ферзан Озпетек, драма, 2012) ...
  • Искажение / Skew (Сейв Челенз, ужасы, триллер, 2011) [HDRip, Профессиональн ...
  • Татуировщик / The Tattooist (Питер Бюргер, ужасы, триллер, 2007) [HDRip, Пр ...
  • Встреча со злом / Абсолютное зло / Meeting Evil (Крис Фишер, триллер, драма ...
  • Ничего, кроме правды / Nothing But the Truth (Род Лури, триллер, драма, 200 ...
  • Робинзон Крузо / Robinson Crusoe (Род Харди, Джордж Миллер, драма, приключе ...
  • Информация
    Посетители, находящиеся в группе Гости, не могут оставлять комментарии к данной публикации.