вход на сайт

Имя пользователя :
Пароль :

Восстановление пароля Регистрация
Поймай меня, если сможешь / Catch Me If You Can (Стивен Спилберг, Драма, комедия, криминал, биография, 2002) [BDRip, Дубляж]
Рейтинг:
(голосов: 1)



[img]{THEME}/images/logopost.png[/img]



Поймай меня, если сможешь / Catch Me If You Can
«Правдивая история о реальном преступнике»


Год выпуска: 2002
Страна: США, Канада
Производство: Amblin Entertainment, Parkes/MacDonald Productions, Splendid Pictures
Жанр: Драма, комедия, криминал, биография

Режиссёр: Стивен Спилберг
В ролях: Леонардо ДиКаприо, Том Хэнкс, Кристофер Уокен, Мартин Шин, Натали Бэй, Эми Адамс, Джеймс Бролин, Брайан Хау, Фрэнк Джон Хьюз, Стив Истин

Перевод: Дубляж
Субтитры: Отсутствуют

Описание: Фрэнк Эбегнейл успел поработать врачом, адвокатом и пилотом на пассажирской авиалинии — и все это до достижения полного совершеннолетия в 21 год. Мастер в обмане и жульничестве, он также обладал искусством подделки документов, что в конечном счете принесло ему миллионы долларов, которые он получил по фальшивым чекам.
Агент ФБР Карл Хэнрэтти отдал бы все, чтобы схватить Фрэнка и привлечь к ответственности за свои деяния, но Фрэнк всегда опережает его на шаг, заставляя продолжать погоню.




Качество: BDRip | Сравнение скриншотов с этой раздачей | Сэмпл
Продолжительность:02:20:43 час.


Формат: AVI
Видео кодек: XviD
Аудио кодек: AC3
Видео: 688x368 (1.870), 23.976 fps, XviD build 65 ~1293 kbps avg, 0.213 bit/pixel
Аудио: 48 kHz, AC3 Dolby Digital, 2/0 (L,R) ch, ~192.00 kbps avg

Дата премьеры (мир): 16 декабря 2002
Дата премьеры (РФ): 13 февраля 2003, «Ист-Вест»

MediaInfo| ▼
General
Complete name : Catch.Me.If.You.Can.2002.BDRip.Dub.avi
Format : AVI
Format/Info : Audio Video Interleave
File size : 1.47 GiB
Duration : 2h 20mn
Overall bit rate : 1 494 Kbps
Writing application : VirtualDubMod 1.5.10.3 | www.virtualdub-fr.org || (build 2550/release)
Writing library : VirtualDubMod build 2550/release

Video
ID : 0
Format : MPEG-4 Visual
Format profile : Advanced [email protected]
Format settings, BVOP : 2
Format settings, QPel : No
Format settings, GMC : No warppoints
Format settings, Matrix : Custom
Codec ID : XVID
Codec ID/Hint : XviD
Duration : 2h 20mn
Bit rate : 1 293 Kbps
Width : 688 pixels
Height : 368 pixels
Display aspect ratio : 1.870
Frame rate : 23.976 fps
Color space : YUV
Chroma subsampling : 4:2:0
Bit depth : 8 bits
Scan type : Progressive
Compression mode : Lossy
Bits/(Pixel*Frame) : 0.213
Stream size : 1.27 GiB (87%)
Writing library : XviD 65

Audio
ID : 1
Format : AC-3
Format/Info : Audio Coding 3
Mode extension : CM (complete main)
Codec ID : 2000
Duration : 2h 20mn
Bit rate mode : Constant
Bit rate : 192 Kbps
Channel(s) : 2 channels
Channel positions : Front: L R
Sampling rate : 48.0 KHz
Bit depth : 16 bits
Compression mode : Lossy
Stream size : 193 MiB (13%)
Alignment : Split accross interleaves
Interleave, duration : 42 ms (1.00 video frame)
Interleave, preload duration : 500 ms







778f3916bbe47ed4b384e57c500f2fe152fdcf65Поймай меня, если сможешь / Catch Me If You Can (Стивен Спилберг, Драма, комедия, криминал, биография, 2002) [BDRip, Дубляж] Поймай меня, если сможешь / Catch Me If You Can (Стивен Спилберг, Драма, комедия, криминал, биография, 2002) [BDRip, Дубляж] " />

Аплоадер: Админ, дата: 27-11-2012, 14:50, торрент скачан: 359 раз

Понравилась раздача? Посмотрите эти:
  • [EN] 42 / 42 (Брайан Хелгеленд, Драма, биография, спорт, 2013) [BDRip, Ориг ...
  • Поймай меня, если сможешь / Catch Me If You Can (Стивен Спилберг, драма, ко ...
  • 42 / 42 (Брайан Хелгеленд, драма, биография, спорт, 2013) [BDRip, Профессио ...
  • Поймай меня, если сможешь / Catch Me If You Can (Стивен Спилберг, драма, ко ...
  • Поймай толстуху, если сможешь / Identity Thief (Сет Гордон, комедия, кримин ...
  • Поймай толстуху, если сможешь [Театральная версия] / Identity Thief [Theatr ...
  • Поймай меня, если сможешь / Catch Me If You Can (Стивен Спилберг, драма, ко ...
  • Решала (Роман Асхаев, Драма,Криминал, 2012) [WEB-DLRip, Не требуется]
  • Охотники на гангстеров / Gangster Squad (Рубен Флейшер, боевик, триллер, др ...
  • МЫ. Верим в любовь / W.E. (Мадонна, Драма, мелодрама, история, 2011) [BDRip ...
  • Реальные Парни / Stand Up Guys (Фишер Стивенс, драма, комедия, криминал, 20 ...
  • Поймай меня, если сможешь / Catch Me If You Can (Стивен Спилберг, Драма, 20 ...
  • Тюремщик / Screwed (Рег Тревисс / Reg Traviss, Драма, 2011) [DVDRip , Люби ...
  • Поймай меня, если сможешь / Catch Me If You Can (Стивен Спилберг, драма, кр ...
  • Поймай меня, если сможешь / Catch Me If You Can (Стивен Спилберг, Драма, ко ...
  • Поймай меня, если сможешь / Catch Me If You Can (Стивен Спилберг, Драма, ко ...
  • Захват / Carjacked (Джон Бонито, триллер, 2011)[BDRip, Профессиональный (мн ...
  • Поймай меня, если сможешь / Catch Me If You Can (Стивен Спилберг, драма, ко ...
  • Поймай меня, если сможешь / Catch Me If You Can (Стивен Спилберг, драма, кр ...
  • Поймай меня, если сможешь / Catch Me If You Can (Стивен Спилберг, драма, кр ...
  • Поймай меня, если сможешь / Catch Me If You Can (Стивен Спилберг / драма, к ...
  • Поймай меня, если сможешь / Catch Me If You Can (Стивен Спилберг, драма, кр ...
  • Поймай меня, если сможешь / Catch Me If You Can (Стивен Спилберг, драма, ко ...
  • Поймай меня, если сможешь / Catch Me If You Can (Стивен Спилберг, Драма, 20 ...
  • Поймай меня, если сможешь / Catch Me If You Can (Стивен Спилберг, драма, ко ...
  • Информация
    Посетители, находящиеся в группе Гости, не могут оставлять комментарии к данной публикации.