вход на сайт

Имя пользователя :
Пароль :

Восстановление пароля Регистрация
Робинзон Крузо / Robinson Crusoe (Род Харди, Джордж Миллер, драма, приключения, 1997) [DVDRip, Профессиональный (многоголосый закадровый)]
Рейтинг:
(голосов: 1)



[img]{THEME}/images/logopost.png[/img]



Робинзон Крузо / Robinson Crusoe

Год выпуска: 1997
Страна: США
Производство: Miramax Films, RHI Entertainment Inc.
Жанр: драма, приключения

Режиссёр: Род Харди, Джордж Миллер
В ролях: Пирс Броснан, William Takaku, Полли Уокер, Иэн Харт, Джеймс Фрейн, Дамиан Льюис, Бен Робертсон,
Мартин Грэйс, Шон Броснан, Лизетт Энтони

Перевод: Профессиональный (многоголосый закадровый)
Субтитры: отсутствуют

Описание: По роману «Жизнь и приключения Робинзона Крузо» Дэниэля Дефо. Открывается фильм сценой дуэли на шпагах, из-за которой Робинзону Крузо и пришлось стать моряком и отправиться на встречу со своей судьбой.



Качество: DVDRip | Сэмпл
Продолжительность: 01:27:01 час.

Формат: AVI
Видео кодек: XviD
Аудио кодек: MP3
Видео: 688x368 (1.87:1), 25 fps, XviD MPEG-4 ~1058 kbps avg, 0.17 bit/pixel
Аудио: 48 kHz, MPEG Layer 3, 2 ch, ~128.00 kbps avg
MediaInfo ▼
General
Complete name : C:Robinzon_Cruzo_1997_DVDRip.avi
Format : AVI
Format/Info : Audio Video Interleave
File size : 745 MiB
Duration : 1h 27mn
Overall bit rate : 1 197 Kbps
Writing application : VirtualDubModRus 1.5.10.2 (build 2542/release)
Writing library : VirtualDubMod build 2542/release
Video #0
ID : 0
Format : MPEG-4 Visual
Format profile : Advanced
Format settings, BVOP : 2
Format settings, QPel : No
Format settings, GMC : No warppoints
Format settings, Matrix : Default (MPEG)
Codec ID : XVID
Codec ID/Hint : XviD
Duration : 1h 27mn
Bit rate : 1 059 Kbps
Width : 688 pixels
Height : 368 pixels
Display aspect ratio : 1.870
Frame rate : 25.000 fps
Color space : YUV
Chroma subsampling : 4:2:0
Bit depth : 8 bits
Scan type : Progressive
Compression mode : Lossy
Bits/(Pixel*Frame) : 0.167
Stream size : 659 MiB (88%)
Writing library : XviD 1.2.1 (UTC 2008-12-04)
Audio #1
ID : 1
Format : MPEG Audio
Format version : Version 1
Format profile : Layer 3
Mode : Joint stereo
Codec ID : 55
Codec ID/Hint : MP3
Duration : 1h 27mn
Bit rate mode : Constant
Bit rate : 128 Kbps
Channel(s) : 2 channels
Sampling rate : 48.0 KHz
Compression mode : Lossy
Stream size : 79.7 MiB (11%)
Alignment : Aligned on interleaves
Interleave, duration : 40 ms (1.00 video frame)
Interleave, preload duration : 504 ms
Премьера ▼премьера (мир): 12
36572ea0bb9915c1b427aade795f77b79b259febРобинзон Крузо / Robinson Crusoe (Род Харди, Джордж Миллер, драма, приключения, 1997) [DVDRip, Профессиональный (многоголосый закадровый)] Робинзон Крузо / Robinson Crusoe (Род Харди, Джордж Миллер, драма, приключения, 1997) [DVDRip, Профессиональный (многоголосый закадровый)] " />

Аплоадер: Админ, дата: 22-11-2012, 14:19, торрент скачан: 359 раз

Понравилась раздача? Посмотрите эти:
  • Непристойная комедия / InAPPropriate Comedy (Винс Оффер, комедия, 2013) [DV ...
  • Погнали! / Getaway (Кортни Соломон, Боевик,Криминал, 2013) [HDRip, Професси ...
  • Мэрайа Мунди и шкатулка Мидаса / The Adventurer: The Curse of the Midas Box ...
  • Безумный Макс 3: Под куполом грома / Mad Max Beyond Thunderdome (Джордж Мил ...
  • Альбатрос / Albatross (Найал МакКормик, Драма, 2011) [DVDRip, Профессиональ ...
  • В хлам / Smashed (Джеймс Понсольдт, Драма, комедия, 2012) [HDRip, Профессио ...
  • Любовь на кончиках пальцев / Populaire (Режис Ройнсар, Мелодрама, комедия, ...
  • Лучший стрелок / Top Gun (Тони Скотт, боевик, драма, мелодрама, 1986) [BDRi ...
  • [EN] Команда: На пути Аллаха / Takiye: Allah yolunda (2010, Бен Вербонг, тр ...
  • Эрик Викинг / Erik the Viking (Терри Джонс, фэнтези, комедия, приключения, ...
  • Робинзон Крузо / Crusoe // Сезон 1, эпизоды с 1 по 13 (из 13) (драма, прикл ...
  • Вскрытие инопланетянина/Alien Autopsy (Джонни Кэмпбелл, Комедия, фантастика ...
  • Миленькие штучки / Les Jolies Choses (Жиль Паке-Бреннер, драма, 2011) [DVDR ...
  • [Discovery] Настоящая история Робинзона Крузо / Robinson Crusoe The true st ...
  • Романтики / The Romantics (Галт Нидерхоффер, Драма, мелодрама, комедия, 201 ...
  • Желтый платочек счастья / The Yellow Handkerchief (Юдайан Прасад, мелодрама ...
  • Мгновение любви / Here (Браден Кинг, Драма, мелодрама, приключения, 2011) [ ...
  • Музыка нас связала / You Instead (Дэвид МакКензи, Драма, комедия, музыка, 2 ...
  • Глушь / Resurrection County (Matt Zettell, ужасы, триллер, 2008) [DVDRip, П ...
  • Искажение / Skew (Сейв Челенз, ужасы, триллер, 2011) [HDRip, Профессиональн ...
  • Робинзон Крузо / Robinson Crusoe (Луис Бунюэль, драма, приключения, 1954) [ ...
  • Ничего, кроме правды / Nothing But the Truth (Род Лури, триллер, драма, 200 ...
  • Камень судьбы / Stone of destiny (Чарльз Мартин Смит, драма, комедия, крими ...
  • Из джунглей в джунгли / Jungle 2 Jungle (Джон Пасквин, комедия, приключения ...
  • Крузо / Crusoe (Калеб Дешанель, Драма, 1988) [HDTVRip, Профессиональный (дв ...
  • Информация
    Посетители, находящиеся в группе Гости, не могут оставлять комментарии к данной публикации.