вход на сайт

Имя пользователя :
Пароль :

Восстановление пароля Регистрация
Глаз шторма / The Eye of the Storm (Фред Скеписи, Драма, 2011) [HDRip, Профессиональный (многоголосый, закадровый) + Оригинал]
Рейтинг:
(голосов: 1)



[img]{THEME}/images/logopost.png[/img]



Глаз шторма / The Eye of the Storm

Год выпуска: 2011
Страна: Австралия
Производство: Paper Bark Films Pty. Ltd
Жанр: Драма

Режиссёр: Фред Скеписи
В ролях: Джеффри Раш, Шарлотта Рэмплинг, Джуди Дэвис, Александра Чеписи, Мария Теодоракис, Джэйми Тимони, Хелен Морс, Робин Невин

Перевод: Профессиональный (многоголосый, закадровый) Лицензия + Оригинал (английский)
Субтитры: нет

Описание: Элизабет Хантер - женщина с большой буквы; именно так, властно и эффектно, она прожила жизнь, теперь подходящую к концу. Элизабет прикована к постели, дни её сочтены, взрослые дети — трагикомичный дуэт невротичной неудачницы и жеманного ловеласа, готового закрутить интрижку с сиделкой — приезжают прощаться. Но Хантер легко не сдаётся…



Сэмпл

Качество: HDRip
Продолжительность: 01:59:08

Формат: AVI
Видео кодек: XviD
Аудио кодек: MP3
Видео: 720x304 (2.35:1), 24.000 fps,XviD 1.2.1 ~1847 kbps avg, 0.352 bit/pixel
Аудио 1: 48 kHz, Audio Coding 3, (Front: L C R, Side: L R, LFE) 6ch,~384kbps/avg (Профессиональный (многоголосый) лицензия)
Аудио 2: 48 kHz, Audio Coding 3, (Front: L C R, Side: L R, LFE) 6ch,~384kbps/avg (оригинал (английский))

Дата премьеры (мир): 23 июля 2011
релиз на DVD: 24 октября 2012, «Кармен Видео»

"MediaInfo" ▼TextОбщее
Полное имя : D:торрент-раздачиGlaz.shtorma.2011.P.HDRip.avi
Формат : AVI
Формат/Информация : Audio Video Interleave
Профиль формата : OpenDML
Размер файла : 2,19 Гбайт
Продолжительность : 1 ч. 59 м.
Общий поток : 2633 Кбит/сек
Название фильма : Glaz.shtorma.2011.P.HDRip
Жанр : Drama
Программа кодирования : VirtualDubMod 1.5.10.2 (build 2540/release)
Формат оригинала/Имя : Movie

Видео
Идентификатор : 0
Формат : MPEG-4 Visual
Профиль формата : Advanced [email protected]
Параметр BVOP формата : 2
Параметр QPel формата : Нет
Параметр GMC формата : Без точки перехода
Параметр матрицы формата : Выборочная
Идентификатор кодека : XVID
Идентификатор кодека/Подсказка : XviD
Продолжительность : 1 ч. 59 м.
Битрейт : 1847 Кбит/сек
Ширина : 720 пикселей
Высота : 304 пикселя
Соотношение сторон : 2,35:1
Частота кадров : 24,000 кадра/сек
Цветовое пространство : YUV
Субдискретизация насыщенности : 4:2:0
Битовая глубина : 8 бит
Тип развёртки : Прогрессивная
Метод сжатия : С потерями
Бит/(Пиксели*Кадры) : 0.352
Размер потока : 1,54 Гбайт (70%)
Библиотека кодирования : XviD 1.2.1 (UTC 2008-12-04)

Аудио #1
Идентификатор : 1
Формат : AC-3
Формат/Информация : Audio Coding 3
Расширение режима : CM (complete main)
Параметр Endianness формата : Big
Идентификатор кодека : 2000
Продолжительность : 1 ч. 59 м.
Вид битрейта : Постоянный
Битрейт : 384 Кбит/сек
Каналы : 6 каналов
Расположение каналов : Front: L C R, Side: L R, LFE
Частота : 48,0 КГц
Битовая глубина : 16 бит
Метод сжатия : С потерями
Размер потока : 327 Мбайт (15%)
Выравнивание : Разделение по промежуткам
Продолжительность промежутка : 42 мс. (1,00 видеокадр)
Время предзагрузки промежутка : 500 мс.

Аудио #2
Идентификатор : 2
Формат : AC-3
Формат/Информация : Audio Coding 3
Расширение режима : CM (complete main)
Параметр Endianness формата : Big
Идентификатор кодека : 2000
Продолжительность : 1 ч. 59 м.
Вид битрейта : Постоянный
Битрейт : 384 Кбит/сек
Каналы : 6 каналов
Расположение каналов : Front: L C R, Side: L R, LFE
Частота : 48,0 КГц
Битовая глубина : 16 бит
Метод сжатия : С потерями
Размер потока : 327 Мбайт (15%)
Выравнивание : Разделение по промежуткам
Продолжительность промежутка : 42 мс. (1,00 видеокадр)
Время предзагрузки промежутка : 500 мс.



92068722cd4afb3a33a81cc14ed759ce04df0f4dГлаз шторма / The Eye of the Storm (Фред Скеписи, Драма, 2011) [HDRip, Профессиональный (многоголосый, закадровый) + Оригинал] Глаз шторма / The Eye of the Storm (Фред Скеписи, Драма, 2011) [HDRip, Профессиональный (многоголосый, закадровый) + Оригинал] " />

Аплоадер: Админ, дата: 27-10-2012, 17:31, торрент скачан: 359 раз

Понравилась раздача? Посмотрите эти:
  • Бойфренд из будущего / About Time (Ричард Кёртис, Фантастика, драма, комеди ...
  • Глаз шторма / The Eye of the Storm (Фред Скеписи, драма, 2011) [BDRip-AVC, ...
  • Одноклассники 2 / Grown Ups 2 (Деннис Дуган, Комедия, 2013) [BDRip, Професс ...
  • Прошлое / Le passé (Асгар Фархади, Драма, детектив , 2013) [HDRip, Авторски ...
  • Кровью и потом: Анаболики / Pain & Gain (Майкл Бэй, криминал, комедия, трил ...
  • Миллион для чайников / The Brass Teapot (Рамаа Мосли, Фэнтези, триллер, ком ...
  • Астрал на улице Арлетт / 388 Arletta Avenue (Рэндолл Коул, Триллер, 2011) [ ...
  • Вот я какой/ Thats What I Am (Майкл Павоне, Драма, 2011) [HDRip, Профессион ...
  • Глушь / Resurrection County (Матт Зеттел, Ужасы,триллер, 2008) [DVDRip, Про ...
  • Жил-был тигр / Ek Tha Tiger (Кабир Кхан, боевик, триллер , 2012) [ HDRip, ...
  • Путешествие на дно моря / Voyage to the Bottom of the Sea (Ирвин Аллен / I ...
  • Кажется, я люблю свою жену / I Think I Love My Wife (Крис Рок, Драма, мелод ...
  • Боец из трущоб / Gutter King (Кейт Алан Моррис / Keith Alan Morris, боевик, ...
  • Приключения Тинтина: Тайна Единорога / The Adventures of Tintin (Стивен Спи ...
  • Нет мужчин - нет проблем / Without Men (Габриела Тальявини, Комедия, 2011) ...
  • Гениальный папа / Father of Invention (Трент Купер, Драма, комедия, 2010) [ ...
  • Жизнь за гранью / After.Life (Агнешка Войтович-Восло, Ужасы, триллер, драм ...
  • Глаз шторма / The Eye of the Storm (Фред Скеписи, Драма, 2011) [HDRip, Проф ...
  • Шаг вперед 4 / Step Up Revolution (Скотт Спир, Драма, мелодрама, музыка, 20 ...
  • Сдохни, Джон Такер / John Tucker Must Die (Бетти Томас, мелодрама, комедия, ...
  • Информация
    Посетители, находящиеся в группе Гости, не могут оставлять комментарии к данной публикации.