вход на сайт

Имя пользователя :
Пароль :

Восстановление пароля Регистрация
Гениальный папа / Father of Invention (Трент Купер, Драма, комедия, 2010) [BDRip, Дубляж, Оригинал]
Рейтинг:
(голосов: 1)



[img]{THEME}/images/logopost.png[/img]



Гениальный папа / Father of Invention
«Sometimes the best ideas are homegrown»


Год выпуска: 2010
Страна: США
Производство: Horizon Entertainment, Pangea Media Group, Foi Productions
Жанр: Драма, комедия

Режиссёр: Трент Купер
В ролях: Кевин Спейси, Камилла Белль, Джонни Ноксвил, Хэзер Грэм, Вирджиния Мэдсен, Джон Стамос, Майкл Розенбаум, Крэйг Робинсон, Джек МакГи, Одра Мари

Перевод: Дубляж, Оригинал (английский)
Субтитры: Отсутствуют

Описание: Роберт Аксель, эксцентричный изобретатель, считает себя настоящим гуру. Но он теряет все в один миг, когда одно из его изобретений калечит тысячи покупателей. Его ждали тюрьма и 8 лет затворничества, после Аксель готов восстановить свое имя и свою многомиллионную империю. Но пока что ему нужно уговорить свою 22-летнюю дочь пустить его к себе в дом, что бы где-то жить.



Качество: BDRip
Продолжительность: 01:33:13час.

Формат: AVI
Видео кодек: Xvid
Аудио кодек: AC3
Видео: 720x304 (2,35:1), 23,976 fps, Xvid ~1909 kbps avg, 0.364 bit/pixel
Аудио #1: 48 kHz, AC3, 2 ch, ~384.00 kbps avg [Дубляж]
Аудио #2: 48 kHz, AC3, 6 ch, ~448.00 kbps avg [Оригинал]

Дата премьеры (мир): 15 февраля 2010
Дата премьеры (РФ): 3 ноября 2011, «Art Pictures»

MediaInfo ▼Общее
Полное имя : E:Фильмы МFather of Invention (2010) BDRip (2XRus. Eng).avi
Формат : AVI
Формат/Информация : Audio Video Interleave
Профиль формата : OpenDML
Размер файла : 2,05 Гбайт
Продолжительность : 1 ч. 33 м.
Общий поток : 3149 Кбит/сек
Название фильма : Гениальный папа / Father of Invention (2010) BDRip (2XRus. Eng)
Программа кодирования : VirtualDubModRus 1.5.10.2 (build 2542/release)
Библиотека кодирования : VirtualDubMod build 2542/release
Правообладатель : rip by maygli

Видео
Идентификатор : 0
Формат : MPEG-4 Visual
Профиль формата : Advanced [email protected]
Параметр BVOP формата : 4
Параметр QPel формата : Нет
Параметр GMC формата : Без точки перехода
Параметр матрицы формата : Default (H.263)
Идентификатор кодека : XVID
Идентификатор кодека/Подсказка : XviD
Продолжительность : 1 ч. 33 м.
Битрейт : 1909 Кбит/сек
Ширина : 720 пикселей
Высота : 304 пикселя
Соотношение сторон : 2,35:1
Частота кадров : 23,976 кадра/сек
Цветовое пространство : YUV
Субдискретизация насыщенности : 4:2:0
Битовая глубина : 8 бит
Тип развёртки : Прогрессивная
Метод сжатия : С потерями
Бит/(Пиксели*Кадры) : 0.364
Размер потока : 1,24 Гбайт (61%)
Библиотека кодирования : XviD 65

Аудио #1
Идентификатор : 1
Формат : AC-3
Формат/Информация : Audio Coding 3
Расширение режима : CM (complete main)
Параметр Endianness формата : Big
Идентификатор кодека : 2000
Продолжительность : 1 ч. 33 м.
Вид битрейта : Постоянный
Битрейт : 384 Кбит/сек
Каналы : 2 канала
Расположение каналов : Front: L C R, Side: L R, LFE
Частота : 48,0 КГц
Битовая глубина : 16 бит
Метод сжатия : С потерями
Размер потока : 256 Мбайт (12%)
Выравнивание : Разделение по промежуткам
Продолжительность промежутка : 42 мс. (1,00 видеокадр)
Время предзагрузки промежутка : 500 мс.

Аудио #2
Идентификатор : 2
Формат : AC-3
Формат/Информация : Audio Coding 3
Расширение режима : CM (complete main)
Параметр Endianness формата : Big
Идентификатор кодека : 2000
Продолжительность : 1 ч. 33 м.
Вид битрейта : Постоянный
Битрейт : 448 Кбит/сек
Каналы : 6 каналов
Расположение каналов : Front: L C R, Side: L R, LFE
Частота : 48,0 КГц
Битовая глубина : 16 бит
Метод сжатия : С потерями
Размер потока : 299 Мбайт (14%)
Выравнивание : Разделение по промежуткам
Продолжительность промежутка : 42 мс. (1,00 видеокадр)
Время предзагрузки промежутка : 500 мс.





d92cf07a7ff8c3ff71c2fd7d7adbecf7cd23476bГениальный папа / Father of Invention (Трент Купер, Драма, комедия, 2010) [BDRip, Дубляж, Оригинал] Гениальный папа / Father of Invention (Трент Купер, Драма, комедия, 2010) [BDRip, Дубляж, Оригинал] " />

Аплоадер: Админ, дата: 20-10-2012, 21:56, торрент скачан: 359 раз

Понравилась раздача? Посмотрите эти:
  • Бойфренд из будущего / About Time (Ричард Кёртис, Фантастика, драма, комеди ...
  • Одноклассники 2 / Grown Ups 2 (Деннис Дуган, Комедия, 2013) [BDRip, Професс ...
  • Кровью и потом: Анаболики / Pain & Gain (Майкл Бэй, криминал, комедия, трил ...
  • Миллион для чайников / The Brass Teapot (Рамаа Мосли, Фэнтези, триллер, ком ...
  • Гениальный папа / Father of Invention (Трент Купер, драма, комедия, 2010) [ ...
  • Гениальный папа / Father of Invention (Трент Купер, драма, комедия, 2010) [ ...
  • Легенда о МорДу / The Legend of MorDu (Брайан Ларсен, Короткометражный, ска ...
  • Гениальный папа / Father of Invention (Трент Купер, драма, комедия, 2010) [ ...
  • Путешествие на дно моря / Voyage to the Bottom of the Sea (Ирвин Аллен / I ...
  • Кажется, я люблю свою жену / I Think I Love My Wife (Крис Рок, Драма, мелод ...
  • Боец из трущоб / Gutter King (Кейт Алан Моррис / Keith Alan Morris, боевик, ...
  • Гениальный папа / Father of Invention (Трент Купер, драма, комедия, 2010) [ ...
  • Гениальный папа / Father of Invention (Трент Купер, драма, комедия, 2010) [ ...
  • Приключения Тинтина: Тайна Единорога / The Adventures of Tintin (Стивен Спи ...
  • Гениальный папа / Father of Invention (Трент Купер, драма, комедия, 2010) ...
  • Жизнь за гранью / After.Life (Агнешка Войтович-Восло, Ужасы, триллер, драм ...
  • Глаз шторма / The Eye of the Storm (Фред Скеписи, Драма, 2011) [HDRip, Проф ...
  • Шаг вперед 4 / Step Up Revolution (Скотт Спир, Драма, мелодрама, музыка, 20 ...
  • Шаг вперед 4 / Step Up Revolution (Скотт Спир, Драма, мелодрама, музыка, 20 ...
  • Сдохни, Джон Такер / John Tucker Must Die (Бетти Томас, мелодрама, комедия, ...
  • Информация
    Посетители, находящиеся в группе Гости, не могут оставлять комментарии к данной публикации.